Лига справедливости: Парадокс источника конфликта / Justice League: The Flashpoint Paradox (Джей Олива / Jay Oliva) [2013, мультфильм, комикс, фантастика, боевик, приключения, BDRip 1080p] MVO (DuBDrag Project), VO (Hronos) + 2xRus, Eng Subs :: Ивановский Торрент трекер
Важное объявление!
У Нас Все раздачи мультитрекерные, при нуле пиров в релизах, можете смело вставать на закачку!
Статистика раздачи
Размер:     |    Зарегистрирован:     |    Скачан:     |   
Нет
 
     
 
 
Автор Сообщение

HUNTER

Стаж:
4 года 11 месяцев
Сообщений:
66116

Репутация: 101

[+] [-]
Вне форума [Профиль] [ЛС]

Лига Справедливости: Парадокс источника конфликта / Justice League: The Flashpoint Paradox-
Страна: США
Жанр: комикс, мультфильм, фантастика, фэнтези, боевик, приключения
Продолжительность: 01:21:14
Год выпуска: 2013
Перевод: Любительский (многоголосый закадровый) DuBDrag Project
Перевод 2: Одноголосый закадровый Hronos
Русские субтитры: есть
Локализация постера: DuBDrag Project- -Режиссёр: Джей Олива / Jay Oliva
Описание: В центре сюжета приключенческого мультфильма Лига справедливости: Парадокс источника конфликта — история непростого парня Барри Аллена, который позднее станет известен всему миру, как супергерой Флэш, обладающий способностью развивать сверхзвуковую скорость. Спустя долгие годы после убийства матери Барри все еще мучается угрызениями совести, ведь в тот роковой день он должен был прийти домой раньше. Однажды Флэш получает возможность все исправить благодаря путешествие во времени.
Отправившись в прошлое он приходит домой раньше и спасает мать от гибели. Но изменив некие события прошлого Флэш с ужасом узнает, что и будущее кардинально изменилось. Теперь героем Централ-Сити является суперзлодей Капитан Холод, защитник Готэма — Бэтмен стал безжалостным, другие супергерои находятся кто где, их личности так же сильно изменились, а Лиги справедливости не существует. В этом мире суперзлодеи остаются безнаказанными и Флэшу приходится действовать. Но сможет ли он один изменить действительность?- -Качество: BDRip 1080p Рип: HDWinG
Формат: MKV
Видео: AVC, 1920x1080, 23,976 fps, 7 437 Kbps
Аудио 1: DTS, 48 KHz, 6 channels, 1536 Kbps - MVO [DuBDrag Project]
Аудио 2: AC3, 48 KHz, 2 channels, 224 Kbps - VO [Hronos]
Аудио 3: DTS, 48 KHz, 6 channels, 1536 Kbps - ENG [Оригинал]
Субтитры: русские [Voronine] , русские [GeekiLeaks] , английские -

DuBDrag Project

Над озвучкой работали:

Перевод: Евгений Леонов

Роли озвучивали:

Евгений Леонов, Настя Татур, Тимур Хайруллин

Подробные технические данные

GeneralUnique ID : 207158678331719713561816060808497266218 (0x9BD94F6835DB88AC9B09DD6ED25CFE2A)Complete name : H:\Раздачи\Justice.League.the.Flashpoint.Paradox.2013.BDRip.1080p.MVO.VO.ENG.Subs-HDWinG.mkvFormat : MatroskaFormat version : Version 2File size : 6.17 GiBDuration : 1h 21mnOverall bit rate : 10.9 MbpsEncoded date : UTC 2013-08-11 15:04:02Writing application : mkvmerge v5.8.0 ('No Sleep / Pillow') built on Sep 2 2012 15:37:04Writing library : libebml v1.2.3 + libmatroska v1.3.0
VideoID : 1Format : AVCFormat/Info : Advanced Video CodecFormat profile : High@L4.1Format settings, CABAC : YesFormat settings, ReFrames : 4 framesCodec ID : V_MPEG4/ISO/AVCDuration : 1h 21mnBit rate : 7 404 KbpsWidth : 1 920 pixelsHeight : 1 080 pixelsDisplay aspect ratio : 16:9Frame rate : 23.976 fpsColor space : YUVChroma subsampling : 4:2:0Bit depth : 8 bitsScan type : ProgressiveBits/(Pixel*Frame) : 0.149Stream size : 4.20 GiB (68%)Writing library : x264 core 132 r2323+704+51 d571b1c tMod [8-bit@4:2:0 X86_64]Encoding settings : cabac=1 / ref=4 / deblock=1:-3:-3 / analyse=0x3:0x113 / me=umh / subme=11 / psy=1 / fade_compensate=0.00 / psy_rd=1.02:0.00 / mixed_ref=1 / me_range=32 / chroma_me=1 / trellis=2 / 8x8dct=1 / cqm=0 / deadzone=21,11 / fast_pskip=0 / chroma_qp_offset=-2 / threads=36 / lookahead_threads=6 / sliced_threads=0 / nr=0 / decimate=0 / interlaced=0 / bluray_compat=0 / constrained_intra=0 / fgo=0 / bframes=8 / b_pyramid=2 / b_adapt=2 / b_bias=0 / direct=3 / weightb=1 / open_gop=0 / weightp=2 / keyint=240 / keyint_min=24 / scenecut=40 / intra_refresh=0 / rc=crf / mbtree=0 / crf=17.5000 / qcomp=0.70 / qpmin=0 / qpmax=69 / qpstep=4 / ip_ratio=1.20 / pb_ratio=1.20 / aq=4:0.95 / aq-sensitivity=10.00 / aq-factor=1.00:1.00:1.00 / aq2=0 / aq3=0Language : EnglishDefault : YesForced : No
Audio #1ID : 2Format : DTSFormat/Info : Digital Theater SystemsCodec ID : A_DTSDuration : 1h 21mnBit rate mode : ConstantBit rate : 1 510 KbpsChannel(s) : 6 channelsChannel positions : Front: L C R, Side: L R, LFESampling rate : 48.0 KHzBit depth : 24 bitsCompression mode : LossyStream size : 877 MiB (14%)Title : MVO [DuBDrag Project]Language : RussianDefault : YesForced : No
Audio #2ID : 3Format : AC-3Format/Info : Audio Coding 3Mode extension : CM (complete main)Format settings, Endianness : BigCodec ID : A_AC3Duration : 1h 21mnBit rate mode : ConstantBit rate : 224 KbpsChannel(s) : 2 channelsChannel positions : Front: L RSampling rate : 48.0 KHzBit depth : 16 bitsCompression mode : LossyStream size : 130 MiB (2%)Title : VO [Hronos]Language : RussianDefault : NoForced : No
Audio #3ID : 4Format : DTSFormat/Info : Digital Theater SystemsCodec ID : A_DTSDuration : 1h 21mnBit rate mode : ConstantBit rate : 1 510 KbpsChannel(s) : 6 channelsChannel positions : Front: L C R, Side: L R, LFESampling rate : 48.0 KHzBit depth : 24 bitsCompression mode : LossyStream size : 877 MiB (14%)Language : EnglishDefault : NoForced : No
Text #1ID : 5Format : UTF-8Codec ID : S_TEXT/UTF8Codec ID/Info : UTF-8 Plain TextTitle : [Voronine]Language : RussianDefault : NoForced : No
Text #2ID : 6Format : UTF-8Codec ID : S_TEXT/UTF8Codec ID/Info : UTF-8 Plain TextTitle : [GeekiLeaks]Language : RussianDefault : NoForced : No
Text #3ID : 7Format : UTF-8Codec ID : S_TEXT/UTF8Codec ID/Info : UTF-8 Plain TextLanguage : EnglishDefault : YesForced : No

_________________
Показать сообщения:    

Текущее время: Сегодня 12:17

Часовой пояс: GMT



Вы не можете начинать темы
Вы не можете отвечать на сообщения
Вы не можете редактировать свои сообщения
Вы не можете удалять свои сообщения
Вы не можете голосовать в опросах
Вы не можете прикреплять файлы к сообщениям
Вы не можете скачивать файлы