Лига Справедливости: Кризис двух Миров / Justice League: Crisis on Two Earths (Сэм Лью / Sam Liu, Лорен Монтгомери / Lauren Montgomery) [2010, мультфильм, фантастика, боевик, BDRip 1080p] :: Ивановский Торрент трекер
Важное объявление!
У Нас Все раздачи мультитрекерные, при нуле пиров в релизах, можете смело вставать на закачку!
Статистика раздачи
Размер:     |    Зарегистрирован:     |    Скачан:     |   
Нет
 
     
 
 
Автор Сообщение

HUNTER

Стаж:
4 года 11 месяцев
Сообщений:
66090

Репутация: 101

[+] [-]
Вне форума [Профиль] [ЛС]


Лига Справедливости: Кризис двух Миров
Justice League: Crisis on Two Earths
-

  • Год производства: 2010

  • Страна: USA

  • Жанр: мультфильм, фантастика, боевик

  • Продолжительность: 01:15:21

  • Перевод: Любительский (Многоголосый, закадровый) [SkyeFilmTV]

  • Субтитры: RUS, ENG-
  • Режиссер: Сэм Лью / Sam Liu, Лорен Монтгомери / Lauren Montgomery
    -
  • Описание: Лекс Лутор, который явился из параллельного мира, чтобы нанять Лигу Справедливости для борьбы с Криминальным Синдикатом.
    Противостояние добра и зла приводит обе Земли на край гибели. Рискованный план спасения, похоже, единственный шанс выжить.
    -
  • Качество видео: BDRip 1080p

  • Формат видео: mkv

  • Видео кодек: H264

  • Аудио кодек: AC3

  • Видео: 1920x1080 (16:9), 23.976 fps, 14.3 Mbps, 0.288 bit/pixel

  • Аудио#1: 48 kHz, AC3 6 ch ~448 kbps avg - SkyeFilmTV

  • Аудио#2: 48 kHz, AC3 6 ch ~640 kbps avg - Оригинал-
  • Автор рипа: falco
-

Доп. информация

Скриншоты

MediaInfo

Код: copyText_writeLink('this.parentNode.parentNode.nextSibling.nextSibling');
General
Unique ID : 224725467961307863182155032342290201097 (0xA9108D0150946F019E8AA41A445F7A09)
Complete name : D:\Торенты\Justice.League.Crisis.on.Two.Earths.2010.BDRip.1080p.falco.mkv
Format : Matroska
Format version : Version 4 / Version 2
File size : 8.12 GiB
Duration : 1h 15mn
Overall bit rate : 15.4 Mbps
Encoded date : UTC 2013-08-13 02:04:03
Writing application : mkvmerge v6.3.0 ('You can't stop me!') built on Jun 28 2013 20:09:41
Writing library : libebml v1.3.0 + libmatroska v1.4.0
Video
ID : 1
Format : AVC
Format/Info : Advanced Video Codec
Format profile : [url=mailto:Main@L4.1]Main@L4.1[/url]
Format settings, CABAC : Yes
Format settings, ReFrames : 6 frames
Codec ID : V_MPEG4/ISO/AVC
Duration : 1h 15mn
Bit rate : 14.3 Mbps
Width : 1 920 pixels
Height : 1 080 pixels
Display aspect ratio : 16:9
Frame rate : 23.976 fps
Color space : YUV
Chroma subsampling : 4:2:0
Bit depth : 8 bits
Scan type : Progressive
Bits/(Pixel*Frame) : 0.288
Stream size : 7.38 GiB (91%)
Writing library : x264 core 130 r2273 b3065e6
Encoding settings : cabac=1 / ref=6 / deblock=1:-1:-1 / analyse=0x1:0x131 / me=umh / subme=9 / psy=1 / psy_rd=1.00:0.00 / mixed_ref=1 / me_range=16 / chroma_me=1 / trellis=1 / 8x8dct=0 / cqm=0 / deadzone=21,11 / fast_pskip=0 / chroma_qp_offset=-2 / threads=6 / lookahead_threads=1 / sliced_threads=0 / nr=0 / decimate=0 / interlaced=0 / bluray_compat=0 / constrained_intra=0 / bframes=3 / b_pyramid=2 / b_adapt=0 / b_bias=0 / direct=3 / weightb=1 / open_gop=0 / weightp=2 / keyint=250 / keyint_min=23 / scenecut=40 / intra_refresh=0 / rc_lookahead=50 / rc=2pass / mbtree=1 / bitrate=14328 / ratetol=1.0 / qcomp=0.60 / qpmin=0 / qpmax=69 / qpstep=4 / cplxblur=20.0 / qblur=0.5 / ip_ratio=1.40 / aq=1:1.00
Default : Yes
Forced : No
Audio #1
ID : 2
Format : AC-3
Format/Info : Audio Coding 3
Mode extension : CM (complete main)
Format settings, Endianness : Big
Codec ID : A_AC3
Duration : 1h 15mn
Bit rate mode : Constant
Bit rate : 448 Kbps
Channel(s) : 6 channels
Channel positions : Front: L C R, Side: L R, LFE
Sampling rate : 48.0 KHz
Bit depth : 16 bits
Compression mode : Lossy
Stream size : 241 MiB (3%)
Title : MVO [SkyeFilmTV]
Language : Russian
Default : Yes
Forced : No
Audio #2
ID : 3
Format : AC-3
Format/Info : Audio Coding 3
Mode extension : CM (complete main)
Format settings, Endianness : Big
Codec ID : A_AC3
Duration : 1h 15mn
Bit rate mode : Constant
Bit rate : 640 Kbps
Channel(s) : 6 channels
Channel positions : Front: L C R, Side: L R, LFE
Sampling rate : 48.0 KHz
Bit depth : 16 bits
Compression mode : Lossy
Stream size : 345 MiB (4%)
Title : ENG
Language : English
Default : No
Forced : No
Text #1
ID : 4
Format : UTF-8
Codec ID : S_TEXT/UTF8
Codec ID/Info : UTF-8 Plain Text
Title : Rus Sub [full]
Language : Russian
Default : Yes
Forced : No
Text #2
ID : 5
Format : UTF-8
Codec ID : S_TEXT/UTF8
Codec ID/Info : UTF-8 Plain Text
Title : Eng Sub [full-SDH]
Language : English
Default : No
Forced : No
Text #3
ID : 6
Format : UTF-8
Codec ID : S_TEXT/UTF8
Codec ID/Info : UTF-8 Plain Text
Title : Eng Sub [full]
Language : English
Default : No
Forced : No
Menu
00:00:00.000 : en:It's Coming
00:05:57.065 : en:Biblical Scale
00:09:32.196 : en:We Work Together
00:20:03.076 : en:Dinosaurs Unleashed
00:29:15.587 : en:Fight On
00:40:04.985 : en:Godspeed
00:59:44.038 : en:The Ring and the Will
01:10:05.576 : en:New Frontier
01:12:16.832 : en:End Credits

_________________
Показать сообщения:    

Текущее время: Сегодня 03:55

Часовой пояс: GMT



Вы не можете начинать темы
Вы не можете отвечать на сообщения
Вы не можете редактировать свои сообщения
Вы не можете удалять свои сообщения
Вы не можете голосовать в опросах
Вы не можете прикреплять файлы к сообщениям
Вы не можете скачивать файлы