Важное объявление!
У Нас Все раздачи мультитрекерные, при нуле пиров в релизах, можете смело вставать на закачку!
Статистика раздачи
Размер:     |    Зарегистрирован:     |    Скачан:     |   
Нет
 
     
 
 
Автор Сообщение

HUNTER

Стаж:
5 лет
Сообщений:
68053

Репутация: 101

[+] [-]
Вне форума [Профиль] [ЛС]

Лига Справедливости: В ловушке времени
JLA Adventures: Trapped in Time
Год выпуска: 2014
Страна: США
Жанр: мультфильм, фантастика, боевик
Продолжительность: 00:52:35
Перевод: Любительский (Многоголосый закадровый) - SkyeFilmTV
русские субтитры: нет-Режиссёр: Джанкарло Волп : Giancarlo Volpe-Роли озвучивали: Дидрих Бадер, Лора Бэйли, Данте Баско, Кори Бертон, Грэй ДеЛисл, Джек Де Сена, Майкл Донован, Том Джибис, Питер Джессоп, Эрика Латтрелл-Описание: Величайший злодей всех времён, Лекс Лютор, побежден Лигой Справедливости. Он погребён в безжизненной ледяной пустыне. Но наступил 31-ый век. Время мира и спокойствия. А Каратэ-Киду не терпится вступить в Легион Супергероев. И вот, находясь в музее с Венерой, он случайно, хвастаясь своими навыками, освобождает замороженного в глыбе льда Лекса Лютора. Оказавшись в будущем в полном одиночестве в его руки попадает великий артефакт - Пески Времени, позволяющий своему владельцу путешествовать во времени. И с неудержимым намерением отомстить за своё поражение Лиге Справедливости, Лекс Лютор отправляется назад в прошлое.- релиз: -Качество: WEB-DL 1080p
Формат: MKV
Видео кодек: AVC
Аудио кодек: AC3
Видео: 1916x1076 , 23,976 fps, ~4 819 kbps avg, 0.097 bit/pixel
Аудио #1: [RUS] 48 kHz, AC3 Dolby Digital, 2/0 (L,R) ch, ~192 kbps kbps avg - MVO
Аудио #2: [ENG] 48 kHz, AC3 Dolby Digital, 2/0 (L,R) ch, ~192 kbps kbps avg
субтитры: английские (full)
навигация по главам: 7 глав
MediaInfo
Общее
Уникальный идентификатор : 244038385203722392308669717627058938715 (0xB79815575E22D05B86ADCA46BFFA635B)
Полное имя : D:\Im\Лига Справедливости\JLA Adventures Trapped in Time.2014.WEB-DL 1080p.mkv
Формат : Matroska
Версия формата : Version 4 / Version 2
Размер файла : 1,95 Гбайт
Продолжительность : 52 м.
Общий поток : 5308 Кбит/сек
Название фильма : JLA Adventures: Trapped in Time.2014.WEB-DL 1080p -Azureus-
Дата кодирования : UTC 2014-05-26 17:21:51
Программа кодирования : mkvmerge v6.8.0 ('Theme for Great Cities') 32bit built on Mar 2 2014 21:27:07
Библиотека кодирования : libebml v1.3.0 + libmatroska v1.4.1
Видео
Идентификатор : 1
Формат : AVC
Формат/Информация : Advanced Video Codec
Профиль формата : High@L4.0
Параметр CABAC формата : Да
Параметр ReFrames формата : 4 кадра
Идентификатор кодека : V_MPEG4/ISO/AVC
Продолжительность : 52 м.
Битрейт : 4819 Кбит/сек
Ширина : 1916 пикселей
Высота : 1076 пикселей
Соотношение сторон : 16:9
Режим частоты кадров : Постоянный
Частота кадров : 23,976 кадра/сек
Цветовое пространство : YUV
Субдискретизация насыщенности : 4:2:0
Битовая глубина : 8 бит
Тип развёртки : Прогрессивная
Бит/(Пиксели*Кадры) : 0.097
Размер потока : 1,77 Гбайт (91%)
Язык : English
Default : Да
Forced : Нет
Основные цвета : BT.709
Характеристики трансфера : BT.709
Коэффициенты матрицы : BT.709
Аудио #1
Идентификатор : 2
Формат : AC-3
Формат/Информация : Audio Coding 3
Расширение режима : CM (complete main)
Параметр Endianness формата : Big
Идентификатор кодека : A_AC3
Продолжительность : 52 м.
Вид битрейта : Постоянный
Битрейт : 192 Кбит/сек
Каналы : 2 канала
Расположение каналов : Front: L R
Частота : 48,0 КГц
Битовая глубина : 16 бит
Метод сжатия : С потерями
Размер потока : 72,2 Мбайт (4%)
Заголовок : MVO - SkyeFilmTV
Язык : Russian
Default : Да
Forced : Нет
Аудио #2
Идентификатор : 3
Формат : AC-3
Формат/Информация : Audio Coding 3
Расширение режима : CM (complete main)
Параметр Endianness формата : Big
Идентификатор кодека : A_AC3
Продолжительность : 52 м.
Вид битрейта : Постоянный
Битрейт : 192 Кбит/сек
Каналы : 2 канала
Расположение каналов : Front: L R
Частота : 48,0 КГц
Битовая глубина : 16 бит
Метод сжатия : С потерями
Размер потока : 72,2 Мбайт (4%)
Заголовок : ENG
Язык : English
Default : Нет
Forced : Нет
Текст
Идентификатор : 4
Формат : UTF-8
Идентификатор кодека : S_TEXT/UTF8
Идентификатор кодека/Информация : UTF-8 Plain Text
Заголовок : Eng Sub - full
Язык : English
Default : Нет
Forced : Нет
Меню
00:00:00.000 : en:1.
00:09:43.000 : en:2.
00:18:36.000 : en:3.
00:30:35.000 : en:4.
00:39:19.000 : en:5.
00:49:36.000 : en:6.
00:50:33.000 : en:7.
____________________________________________
Стою на раздаче до 5 дней.
Просьба скачавшим как можно дольше не покидать раздачу!
ВСЕМ ПРИЯТНОГО ПРОСМОТРА!_________________________________________

_________________
Показать сообщения:    

Текущее время: Сегодня 08:54

Часовой пояс: GMT



Вы не можете начинать темы
Вы не можете отвечать на сообщения
Вы не можете редактировать свои сообщения
Вы не можете удалять свои сообщения
Вы не можете голосовать в опросах
Вы не можете прикреплять файлы к сообщениям
Вы не можете скачивать файлы