Важное объявление!
У Нас Все раздачи мультитрекерные, при нуле пиров в релизах, можете смело вставать на закачку!
 
Автор Сообщение

HUNTER

Стаж:
4 года 8 месяцев
Сообщений:
62060

Репутация: 101

[+] [-]
Вне форума [Профиль] [ЛС]

-Лига Справедливости: В ловушке времени / JLA Adventures: Trapped in Time
-Страна: США
Жанр: фантастика, боевик, комикс
Продолжительность: 00:52:47
Год выпуска: 2012
Перевод: Любительский (многоголосый закадровый) [SkyeFilmTV]
Русские субтитры: нет-Режиссёр: Джанкарло Волп
Роли озвучивали: Дидрих Бадер, Лора Бэйли, Данте Баско, Кори Бертон, Грэй ДеЛисл, Джек Де Сена, Майкл Донован и др.
Описание: Величайший злодей всех времён, Лекс Лютор, побежден Лигой Справедливости. Он погребён в безжизненной ледяной пустыне. Но наступил 31-ый век. Время мира и спокойствия. А Каратэ-Киду не терпится вступить в Легион Супергероев. И вот, находясь в музее с Венерой, он случайно, хвастаясь своими навыками, освобождает замороженного в глыбе льда Лекса Лютора. Оказавшись в будущем в полном одиночестве в его руки попадает великий артефакт - Пески Времени, позволяющий своему владельцу путешествовать во времени. И с неудержимым намерением отомстить за своё поражение Лиге Справедливости, Лекс Лютор отправляется назад в прошлое.-Семпл: http://multi-up.com/953359-Качество: HDRip
Формат: AVI
Видео: XViD, 720x400, 23.976 fps, ~ 2 450 kbps
Аудио: AC3, 48 kHz, 2 ch, 192 kbps [Русский, SkyeFilmTV ]
Аудио 2: AC3, 48 kHz, 2 ch, 192 kbps [Английский]
Субтитры: отсутствуют

Подробные технические данные

GeneralFormat : AVIFormat/Info : Audio Video InterleaveFile size : 1.05 GiBDuration : 52mn 47sOverall bit rate : 2 849 KbpsWriting application : VirtualDubMod 1.5.10.2 (build 2540/release)Writing library : VirtualDubMod build 2540/release
VideoID : 0Format : MPEG-4 VisualFormat profile : Advanced Simple@L5Format settings, BVOP : 1Format settings, QPel : NoFormat settings, GMC : No warppointsFormat settings, Matrix : Default (MPEG)Codec ID : XVIDCodec ID/Hint : XviDDuration : 52mn 47sBit rate : 2 450 KbpsWidth : 720 pixelsHeight : 400 pixelsDisplay aspect ratio : 16:9Frame rate : 23.976 fpsColor space : YUVChroma subsampling : 4:2:0Bit depth : 8 bitsScan type : ProgressiveCompression mode : LossyBits/(Pixel*Frame) : 0.355Stream size : 925 MiB (86%)Writing library : XviD 1.2.1 (UTC 2008-12-04)
Audio #1ID : 1Format : AC-3Format/Info : Audio Coding 3Mode extension : CM (complete main)Format settings, Endianness : BigCodec ID : 2000Duration : 52mn 47sBit rate mode : ConstantBit rate : 192 KbpsChannel(s) : 2 channelsChannel positions : Front: L RSampling rate : 48.0 KHzBit depth : 16 bitsCompression mode : LossyStream size : 72.5 MiB (7%)Alignment : Split accross interleavesInterleave, duration : 42 ms (1.00 video frame)Interleave, preload duration : 500 ms
Audio #2ID : 2Format : AC-3Format/Info : Audio Coding 3Mode extension : CM (complete main)Format settings, Endianness : BigCodec ID : 2000Duration : 52mn 47sBit rate mode : ConstantBit rate : 192 KbpsChannel(s) : 2 channelsChannel positions : Front: L RSampling rate : 48.0 KHzBit depth : 16 bitsCompression mode : LossyStream size : 72.5 MiB (7%)Alignment : Split accross interleavesInterleave, duration : 42 ms (1.00 video frame)Interleave, preload duration : 500 ms
-
-

_________________
Показать сообщения:    

Текущее время: Сегодня 05:53

Часовой пояс: GMT



Вы не можете начинать темы
Вы не можете отвечать на сообщения
Вы не можете редактировать свои сообщения
Вы не можете удалять свои сообщения
Вы не можете голосовать в опросах
Вы не можете прикреплять файлы к сообщениям
Вы не можете скачивать файлы
Наши партнеры: интернет магазин Ивановского трикотажа textilla.ru