Лига справедливости: Война / Justice League: War (Джей Олива / Jay Oliva) [2014, приключения, мультфильм, WEB-DL 1080p] MVO (Kapets\' Studios) + VO (Денис Коровин) + ENG + SUB :: Ивановский Торрент трекер
Важное объявление!
У Нас Все раздачи мультитрекерные, при нуле пиров в релизах, можете смело вставать на закачку!
Статистика раздачи
Размер:     |    Зарегистрирован:     |    Скачан:     |   
Нет
 
     
 
 
Автор Сообщение

HUNTER

Стаж:
4 года 11 месяцев
Сообщений:
66066

Репутация: 101

[+] [-]
Вне форума [Профиль] [ЛС]

Лига Справедливости: Война / Justice League: War

Год выпуска: 2014
Страна: США
Жанр: Комикс, мультфильм, фантастика, фэнтези, боевик, приключения
Продолжительность: 01:19:24
Год выпуска: 2011
Перевод1: Любительский (многоголосный закадровый) от Kapets's Studios
Перевод2: Любительский (одноголосный закадровый) - [Денис Коровин] a.k.a. [Marvel]
Русские субтитры: есть
Режиссёр: Джей Олива / Jay Oliva
Роли озвучивали: Мишель Монахэн, Алан Тьюдик, Шон Эстин, Шемар Мур, Джастин Кирк, Кристофер Горам, Джейсон О’Мара, Джордж Ньюберн, Стивен Блум, Брюс Томас
Описание:Лучшие герои мира решают создать Лигу Справедливости, чтобы остановить инопланетное вторжение на Землю.--<<Семпл>>--Над релизом работали:
Перевод: Dakota Family Translators
Озвучивали:
kenpachi
Ormeli
TeT_Rec
kapets
Постер: Ruswon--Качество: WEB-DL
Формат: MKV
Видео: MPEG4 Video (H264), 1918x1078, 23.976fps, 5117 Kbps
Аудио: Русский, Dolby AC3, 48000Hz, 6 channels, 384 Kbps | Многоголосный закадровый - Kapets's Studios
Аудио2: Русский, AC3, 48 KHz, 6 channels, 384 Kbps | Одноголосный закадровый - Денис Коровин a.k.a. Marvel
Аудио3: Английский, AC3, 48 KHz, 6 channels, 384 Kbps
Субтитры: русские, английские

Подробные технические данные

GeneralUnique ID : 193407079713130303712638639291056828611 (0x9180D93FA88F606CABC70576EA8CB0C3)Complete name : D:\Sony Vegas\видео\Justice League - War\1080\Justice.League.War.2014.1080p.WEB-DL.H264.Kapets's.Studios.mkvFormat : MatroskaFormat version : Version 4 / Version 2File size : 3.55 GiBDuration : 1h 19mnOverall bit rate : 6 396 KbpsEncoded date : UTC 2014-02-02 10:26:03Writing application : mkvmerge v6.0.0 ('Coming Up For Air') built on Jan 20 2013 09:52:00Writing library : libebml v1.3.0 + libmatroska v1.4.0
VideoID : 1Format : AVCFormat/Info : Advanced Video CodecFormat profile : High@L4.0Format settings, CABAC : YesFormat settings, ReFrames : 4 framesCodec ID : V_MPEG4/ISO/AVCDuration : 1h 19mnBit rate : 5 117 KbpsWidth : 1 918 pixelsHeight : 1 078 pixelsDisplay aspect ratio : 16:9Frame rate mode : ConstantFrame rate : 23.976 fpsColor space : YUVChroma subsampling : 4:2:0Bit depth : 8 bitsScan type : ProgressiveBits/(Pixel*Frame) : 0.103Stream size : 2.84 GiB (80%)Title : Video_Track_PublicHDLanguage : EnglishDefault : YesForced : NoColor primaries : BT.709Transfer characteristics : BT.709Matrix coefficients : BT.709
Audio #1ID : 2Format : AC-3Format/Info : Audio Coding 3Mode extension : CM (complete main)Format settings, Endianness : BigCodec ID : A_AC3Duration : 1h 19mnBit rate mode : ConstantBit rate : 384 KbpsChannel count : 6 channelsChannel positions : Front: L C R, Side: L R, LFESampling rate : 48.0 KHzBit depth : 16 bitsCompression mode : LossyDelay relative to video : -42msStream size : 218 MiB (6%)Default : YesForced : No
Audio #2ID : 3Format : AC-3Format/Info : Audio Coding 3Mode extension : CM (complete main)Format settings, Endianness : BigCodec ID : A_AC3Duration : 1h 19mnBit rate mode : ConstantBit rate : 384 KbpsChannel count : 6 channelsChannel positions : Front: L C R, Side: L R, LFESampling rate : 48.0 KHzBit depth : 16 bitsCompression mode : LossyDelay relative to video : -42msStream size : 218 MiB (6%)Title : VO (Денис Коровин)Language : RussianDefault : NoForced : No
Audio #3ID : 4Format : AC-3Format/Info : Audio Coding 3Mode extension : CM (complete main)Format settings, Endianness : BigCodec ID : A_AC3Duration : 1h 19mnBit rate mode : ConstantBit rate : 384 KbpsChannel count : 6 channelsChannel positions : Front: L C R, Side: L R, LFESampling rate : 48.0 KHzBit depth : 16 bitsCompression mode : LossyDelay relative to video : -42msStream size : 218 MiB (6%)Title : OriginalLanguage : EnglishDefault : NoForced : No
Text #1ID : 5Format : UTF-8Codec ID : S_TEXT/UTF8Codec ID/Info : UTF-8 Plain TextTitle : FullLanguage : RussianDefault : NoForced : No
Text #2ID : 6Format : UTF-8Codec ID : S_TEXT/UTF8Codec ID/Info : UTF-8 Plain TextTitle : FullLanguage : EnglishDefault : NoForced : No
Menu00:00:00.000 : en:1.00:10:19.000 : en:2.00:20:15.000 : en:3.00:30:59.000 : en:4.00:39:38.000 : en:5.00:50:33.000 : en:6.00:59:21.000 : en:7.01:11:14.000 : en:8.01:15:49.000 : en:9.

Скриншоты


_________________
Показать сообщения:    

Текущее время: Сегодня 20:54

Часовой пояс: GMT



Вы не можете начинать темы
Вы не можете отвечать на сообщения
Вы не можете редактировать свои сообщения
Вы не можете удалять свои сообщения
Вы не можете голосовать в опросах
Вы не можете прикреплять файлы к сообщениям
Вы не можете скачивать файлы