Ивановский Торрент трекер
Яндекс.Погода
 

[Цитировать]
HUNTER

- Лига справедливости: Война -
Justice League: War
- Страна: США
Студия: DC Entertainment / Warner Bros. Animation
Жанр: мультфильм, фантастика, боевик, приключения
Продолжительность: 01:19:24
Год выпуска: 2014
Перевод: Одноголосый закадровый - [Денис Коровин] a.k.a. [Marvel]
Cубтитры: русские (полные) - [Dakota Family Translators], английские (полные)
Режиссёр: Джей Олива / Jay Oliva
Роли озвучивали: Мишель Монахэн, Алан Тьюдик, Шон Эстин, Шемар Мур, Джастин Кирк, Кристофер Горам, Джейсон О’Мара, Джордж Ньюберн, Стивен Блум, Брюс Томас, Роки Кэрролл, Зак Каллисон, Лара Джилл Миллер, Джорджина Кордова и др.
Описание: Мультфильм повествует о начале возникновения Лиги справедливости.
В Готэм-сити загадочным образом исчезают люди и в этом винят Бэтмена. Люди считают, что он похищает людей и пьет их кровь. Зеленый Фонарь, дабы покарать виновника похищения, направляется в Готем и встречает там Бэтмена, но под личиной летучей мыши оказывается инопланетный высокотехнологичный робот. Фонарь и настоящий Бэтмен объединяются для борьбы с роботом, который заложил какую-то штуку в канализации города. Как выясняется позже, робот был не единственным, а эти штуки есть ничто иное как порталы для перемещения между измерениями для вторжения.
В общем итоге все будущие члены Лиги справедливости объединяться для борьбы с могущественным врагом Дарксайдом.- -Релиз от: -Качество: WEB-DL 1080p
Формат: MKV
Видео: H.264, 1918x1078 (16:9), 23.976 fps, ~5124 Kbps, 0.103 bit/pixel
| Аудио #1: 48 kHz, AC3 Dolby Digital, 3/2 (L,C,R,l,r) + LFE ch, ~384.00 kbps | Russian | VO
| Аудио #2: 48 kHz, AC3 Dolby Digital, 3/2 (L,C,R,l,r) + LFE ch, ~384.00 kbps | English | Original
Формат субтитров: softsub (SRT)- -

Подробные технические данные

GeneralUnique ID : 185782719082376320211500399239843949708 (0x8BC4733F32271BAE8E79E46AE0322C8C)Complete name : Justice.League.War.2014.WEB-DL.1080p.H.264.RUS.-ANTipiGo.mkvFormat : MatroskaFormat version : Version 2File size : 3.33 GiBDuration : 1h 19mnOverall bit rate : 6 012 KbpsMovie name : Лига справедливости: Война / Justice League: War [2014, мультфильм, WEB-DL 1080p][Релиз от: ANTipiGo]Encoded date : UTC 2014-02-01 11:47:14Writing application : mkvmerge v5.2.1 ('A Far Off Place') built on Jan 2 2012 23:21:10Writing library : libebml v1.2.3 + libmatroska v1.3.0
VideoID : 1Format : AVCFormat/Info : Advanced Video CodecFormat profile : High@L4.0Format settings, CABAC : YesFormat settings, ReFrames : 4 framesCodec ID : V_MPEG4/ISO/AVCDuration : 1h 19mnBit rate : 5 124 KbpsWidth : 1 918 pixelsHeight : 1 078 pixelsDisplay aspect ratio : 16:9Frame rate mode : ConstantFrame rate : 23.976 fpsColor space : YUVChroma subsampling : 4:2:0Bit depth : 8 bitsScan type : ProgressiveBits/(Pixel*Frame) : 0.103Stream size : 2.84 GiB (85%)Language : EnglishDefault : YesForced : NoColor primaries : BT.709Transfer characteristics : BT.709Matrix coefficients : BT.709
Audio #1ID : 2Format : AC-3Format/Info : Audio Coding 3Mode extension : CM (complete main)Format settings, Endianness : BigCodec ID : A_AC3Duration : 1h 19mnBit rate mode : ConstantBit rate : 384 KbpsChannel(s) : 6 channelsChannel positions : Front: L C R, Side: L R, LFESampling rate : 48.0 KHzBit depth : 16 bitsCompression mode : LossyStream size : 218 MiB (6%)Title : VO (Денис Коровин)Language : RussianDefault : YesForced : No
Audio #2ID : 3Format : AC-3Format/Info : Audio Coding 3Mode extension : CM (complete main)Format settings, Endianness : BigCodec ID : A_AC3Duration : 1h 19mnBit rate mode : ConstantBit rate : 384 KbpsChannel(s) : 6 channelsChannel positions : Front: L C R, Side: L R, LFESampling rate : 48.0 KHzBit depth : 16 bitsCompression mode : LossyStream size : 218 MiB (6%)Title : OriginalLanguage : EnglishDefault : NoForced : No
Text #1ID : 4Format : UTF-8Codec ID : S_TEXT/UTF8Codec ID/Info : UTF-8 Plain TextTitle : FullLanguage : RussianDefault : NoForced : No
Text #2ID : 5Format : UTF-8Codec ID : S_TEXT/UTF8Codec ID/Info : UTF-8 Plain TextTitle : FullLanguage : EnglishDefault : NoForced : No
Menu00:00:00.000 : en:1.00:10:19.000 : en:2.00:20:15.000 : en:3.00:30:59.000 : en:4.00:39:38.000 : en:5.00:50:33.000 : en:6.00:59:21.000 : en:7.01:11:14.000 : en:8.01:15:49.000 : en:9.

-

Скриншоты



-
Показать сообщения:    

Текущее время: 23-Окт 07:07

Часовой пояс: UTC - 1


Вы не можете начинать темы
Вы не можете отвечать на сообщения
Вы не можете редактировать свои сообщения
Вы не можете удалять свои сообщения
Вы не можете голосовать в опросах
Вы не можете прикреплять файлы к сообщениям
Вы не можете скачивать файлы

!ВНИМАНИЕ!
Сайт не предоставляет электронные версии произведений, а занимается лишь коллекционированием и каталогизацией ссылок, присылаемых и публикуемых на форуме нашими читателями. Если вы являетесь правообладателем какого-либо представленного материала и не желаете, чтобы ссылка на него находилась в нашем каталоге, свяжитесь с нами, и мы незамедлительно удалим ее. Файлы для обмена на трекере предоставлены пользователями сайта, и администрация не несет ответственности за их содержание. Просьба не заливать файлы, защищенные авторскими правами, а также файлы нелегального содержания!