Ивановский Торрент трекер
Яндекс.Погода
 

[Цитировать]
HUNTER

Лига Справедливости: Война / Justice League: War
Страна: США, DC Comics, DC Entertainment, Warner Bros. Animation
Жанр: Комикс, мультфильм, фантастика, фэнтези, боевик, приключения
Продолжительность: 01:19:27
Год выпуска: 2014
Перевод: Профессиональный (многоголосый закадровый) [BaibaKo]
Русские субтитры: нет
Режиссёр: Джей Олива / Jay Oliva
Роли озвучивали: Мишель Монахэн, Алан Тьюдик, Шон Эстин, Шемар Мур, Джастин Кирк, Кристофер Горам, Джейсон О’Мара, Джордж Ньюберн, Стивен Блум, Брюс Томас
Описание: Лучшие герои мира решают создать Лигу Справедливости, чтобы остановить инопланетное вторжение на Землю.
Семпл: http://multi-up.com/949312
Качество: HDRip
Формат: AVI
Видео: Xvid, 720x400 (16:9), 23,976 fps, 2070 Kbps
Аудио: Русский, AC3, 48 KHz, 6 channels, 384 Kbps
Субтитры: Отсутствуют

Подробные технические данные

ОбщееПолное имя : D:\Торренты\Justice.League.War.2014.P.HDRip.1400MB.aviФормат : AVIФормат/Информация : Audio Video InterleaveРазмер файла : 1,37 ГбайтПродолжительность : 1 ч. 19 м.Общий поток : 2463 Кбит/секПрограмма кодирования : VirtualDubMod 1.5.10.2 (build 2540/release)Библиотека кодирования : VirtualDubMod build 2540/release
ВидеоИдентификатор : 0Формат : MPEG-4 VisualПрофиль формата : Advanced Simple@L5Параметр BVOP формата : 2Параметр QPel формата : НетПараметр GMC формата : Без точки переходаПараметр матрицы формата : Default (MPEG)Идентификатор кодека : XVIDИдентификатор кодека/Подсказка : XviDПродолжительность : 1 ч. 19 м.Битрейт : 2070 Кбит/секШирина : 720 пикселейВысота : 400 пикселейСоотношение сторон : 16:9Частота кадров : 23,976 кадра/секЦветовое пространство : YUVСубдискретизация насыщенности : 4:2:0Битовая глубина : 8 битТип развёртки : ПрогрессивнаяМетод сжатия : С потерямиБит/(Пиксели*Кадры) : 0.300Размер потока : 1,15 Гбайт (84%)Библиотека кодирования : XviD 1.2.1 (UTC 2008-12-04)
АудиоИдентификатор : 1Формат : AC-3Формат/Информация : Audio Coding 3Расширение режима : CM (complete main)Параметр Endianness формата : BigИдентификатор кодека : 2000Продолжительность : 1 ч. 19 м.Вид битрейта : ПостоянныйБитрейт : 384 Кбит/секКаналы : 6 каналовРасположение каналов : Front: L C R, Side: L R, LFEЧастота : 48,0 КГцБитовая глубина : 16 битМетод сжатия : С потерямиРазмер потока : 218 Мбайт (16%)Выравнивание : Разделение по промежуткамПродолжительность промежутка : 42 мс. (1,00 видеокадр)Время предзагрузки промежутка : 500 мс.

Скриншоты



Показать сообщения:    

Текущее время: 13-Дек 05:43

Часовой пояс: UTC ± 0


Вы не можете начинать темы
Вы не можете отвечать на сообщения
Вы не можете редактировать свои сообщения
Вы не можете удалять свои сообщения
Вы не можете голосовать в опросах
Вы не можете прикреплять файлы к сообщениям
Вы не можете скачивать файлы

!ВНИМАНИЕ!
Сайт не предоставляет электронные версии произведений, а занимается лишь коллекционированием и каталогизацией ссылок, присылаемых и публикуемых на форуме нашими читателями. Если вы являетесь правообладателем какого-либо представленного материала и не желаете, чтобы ссылка на него находилась в нашем каталоге, свяжитесь с нами, и мы незамедлительно удалим ее. Файлы для обмена на трекере предоставлены пользователями сайта, и администрация не несет ответственности за их содержание. Просьба не заливать файлы, защищенные авторскими правами, а также файлы нелегального содержания!