Ивановский Торрент трекер
Яндекс.Погода
 

[Цитировать]
HUNTER

Лига справедливости: Война / Justice League: War
Страна: США, DC Comics, DC Entertainment, Warner Bros. Animation
Жанр: Комикс, мультфильм, фантастика, фэнтези, боевик, приключения
Продолжительность: 01:19:24
Год выпуска: 2014
Перевод: Одноголосый закадровый [Hronos]
Русские субтитры: нет
Режиссёр: Джей Олива / Jay Oliva
Роли озвучивали: Мишель Монахэн, Алан Тьюдик, Шон Эстин, Шемар Мур, Джастин Кирк, Кристофер Горам, Джейсон О’Мара, Джордж Ньюберн, Стивен Блум, Брюс Томас
Описание: Лучшие герои мира решают создать Лигу Справедливости, чтобы остановить инопланетное вторжение на Землю.
Семпл: http://multi-up.com/945772
Качество: WEB-DLRip
Формат: MKV
Видео: AVC, 1024x576 (16:9), 23,976 fps, 1606 Kbps
Аудио: Русский, AC3, 48 KHz, 2 channels, 128 Kbps
Аудио 2: Английский, AC3, 48 KHz, 6 channels, 384 Kbps
Субтитры: Английские

Подробные технические данные

ОбщееУникальный идентификатор : 219058014339985800493312290458702346647 (0xA4CD09F7CF7F5FF68C056190C2467997)Полное имя : D:\Торренты\Justice.League.War.2014.L1.WEB-DLRip.AVC.ExKinoRay.mkvФормат : MatroskaВерсия формата : Version 2Размер файла : 1,21 ГбайтПродолжительность : 1 ч. 19 м.Общий поток : 2184 Кбит/секНазвание фильма : Justice League: War - ExKinoRay by Enigma-Vladislav71Дата кодирования : UTC 2014-01-29 05:26:58Программа кодирования : mkvmerge v4.9.1 ('Ich will') built on Jul 11 2011 23:53:15Библиотека кодирования : libebml v1.2.1 + libmatroska v1.1.1
ВидеоИдентификатор : 1Формат : AVCФормат/Информация : Advanced Video CodecПрофиль формата : High@L4.1Параметр CABAC формата : ДаПараметр ReFrames формата : 8 кадровИдентификатор кодека : V_MPEG4/ISO/AVCПродолжительность : 1 ч. 19 м.Битрейт : 1606 Кбит/секШирина : 1024 пикселяВысота : 576 пикселейСоотношение сторон : 16:9Режим частоты кадров : ПостоянныйЧастота кадров : 23,976 кадра/секЦветовое пространство : YUVСубдискретизация насыщенности : 4:2:0Битовая глубина : 8 битТип развёртки : ПрогрессивнаяБит/(Пиксели*Кадры) : 0.114Размер потока : 889 Мбайт (72%)Библиотека кодирования : x264 core 116 r2044 392e762Настройки программы : cabac=1 / ref=8 / deblock=1:-2:-1 / analyse=0x3:0x113 / me=umh / subme=9 / psy=1 / psy_rd=1.00:0.20 / mixed_ref=1 / me_range=32 / chroma_me=1 / trellis=2 / 8x8dct=1 / cqm=0 / deadzone=21,11 / fast_pskip=0 / chroma_qp_offset=-3 / threads=12 / sliced_threads=0 / nr=0 / decimate=0 / interlaced=0 / bluray_compat=0 / constrained_intra=0 / bframes=8 / b_pyramid=2 / b_adapt=2 / b_bias=0 / direct=3 / weightb=1 / open_gop=0 / weightp=2 / keyint=240 / keyint_min=23 / scenecut=40 / intra_refresh=0 / rc_lookahead=50 / rc=2pass / mbtree=1 / bitrate=1606 / ratetol=1.0 / qcomp=0.60 / qpmin=0 / qpmax=69 / qpstep=4 / cplxblur=20.0 / qblur=0.5 / ip_ratio=1.40 / aq=1:1.00Default : ДаForced : Нет
Аудио #1Идентификатор : 2Формат : AC-3Формат/Информация : Audio Coding 3Расширение режима : CM (complete main)Параметр Endianness формата : BigИдентификатор кодека : A_AC3Продолжительность : 1 ч. 19 м.Вид битрейта : ПостоянныйБитрейт : 192 Кбит/секКаналы : 2 каналаРасположение каналов : Front: L RЧастота : 48,0 КГцБитовая глубина : 16 битМетод сжатия : С потерямиРазмер потока : 109 Мбайт (9%)Заголовок : Любительский одноголосый (Hronos)Default : ДаForced : Нет
Аудио #2Идентификатор : 3Формат : AC-3Формат/Информация : Audio Coding 3Расширение режима : CM (complete main)Параметр Endianness формата : BigИдентификатор кодека : A_AC3Продолжительность : 1 ч. 19 м.Вид битрейта : ПостоянныйБитрейт : 384 Кбит/секКаналы : 6 каналовРасположение каналов : Front: L C R, Side: L R, LFEЧастота : 48,0 КГцБитовая глубина : 16 битМетод сжатия : С потерямиРазмер потока : 218 Мбайт (18%)Заголовок : EnglishЯзык : EnglishDefault : НетForced : Нет
ТекстИдентификатор : 4Формат : UTF-8Идентификатор кодека : S_TEXT/UTF8Идентификатор кодека/Информация : UTF-8 Plain TextЗаголовок : EnglishЯзык : EnglishDefault : ДаForced : Нет
Меню00:00:00.000 : en:1.00:10:19.000 : en:2.00:20:15.000 : en:3.00:30:59.000 : en:4.00:39:38.000 : en:5.00:50:33.000 : en:6.00:59:21.000 : en:7.01:11:14.000 : en:8.01:15:49.000 : en:9.
Релиз от: ExKinoRay
Авторы релиза: Vladislav71 и Enigma

Скриншоты



Показать сообщения:    

Текущее время: 11-Дек 17:19

Часовой пояс: UTC ± 0


Вы не можете начинать темы
Вы не можете отвечать на сообщения
Вы не можете редактировать свои сообщения
Вы не можете удалять свои сообщения
Вы не можете голосовать в опросах
Вы не можете прикреплять файлы к сообщениям
Вы не можете скачивать файлы

!ВНИМАНИЕ!
Сайт не предоставляет электронные версии произведений, а занимается лишь коллекционированием и каталогизацией ссылок, присылаемых и публикуемых на форуме нашими читателями. Если вы являетесь правообладателем какого-либо представленного материала и не желаете, чтобы ссылка на него находилась в нашем каталоге, свяжитесь с нами, и мы незамедлительно удалим ее. Файлы для обмена на трекере предоставлены пользователями сайта, и администрация не несет ответственности за их содержание. Просьба не заливать файлы, защищенные авторскими правами, а также файлы нелегального содержания!