Важное объявление!
У Нас Все раздачи мультитрекерные, при нуле пиров в релизах, можете смело вставать на закачку!
 
Автор Сообщение

HUNTER

Стаж:
4 года 9 месяцев
Сообщений:
65033

Репутация: 101

[+] [-]
Вне форума [Профиль] [ЛС]

Лига справедливости: Боги и монстры
Justice League: Gods and Monsters
-
Страна: США
Жанр: фантастика, боевик, комикс
Продолжительность: 01:15:42
Год выпуска: 2015
Перевод: Профессиональный (двухголосый закадровый)
Русские субтитры: есть (Dakota Family Translators)-Режиссёр: Сэм Лью / Sam Liu
Роли озвучивали: Бенджамин Брэтт, Майкл С. Холл, Тамара Тейлор, Пэйджет Брюстер, Си Томас Хауэлл, Джейсон Айзекс, Ди Брэдли Бейкер, Эрик Бауза, Ларри Седар, Ричард Чемберлен-ОписаниеДействие происходит в альтернативной вселенной комиксов DC, где становление классической троицы — костяка Лиги Справедливости — происходило совсем не так, как мы к тому привыкли. Забудьте о традиционных образах Супермена, Бэтмена и Чудо-женщины! Теперь перед нами не самоотверженные защитники слабых и угнетенных, а брутальные и неуправляемые люди, наделенные огромной суперсилой. В конце концов буйный нрав троицы вызывает понятное раздражение у правительства. Вскоре несколько известных учёных находят мертвыми. Подозрение падает на Лигу Справедливости, хотя они не совершали ничего подобного. Правительство попытается обезвредить героев, но те не пойдут на компромисс, и между защитниками человечества и самим человечеством разгорится война.-Сэмпл

IMDb: 7.10 (1812)
Релиз:

Качество: BDRip-AVC BDRemux 1080p
Формат: MKV
Видео: AVC 1528 Kbps 1024 x 576 (1.778) 23.976 fps
Аудио: AC-3 448 Kbps 6 channels, 48.0 KHz DVO
Аудио 2: AC-3 448 Kbps 6 channels, 48.0 KHz Eng
Субтитры: Русские (Dakota Family Translators), English SDH

MI | Log

Log
x264 [info]: frame I:1104 Avg QP:10.76 size: 73620
x264 [info]: frame P:28393 Avg QP:12.90 size: 16731
x264 [info]: frame B:79413 Avg QP:13.69 size: 4253
x264 [info]: consecutive B-frames: 4.2% 6.5% 7.2% 49.7% 8.2% 7.6% 2.3% 5.3% 1.4% 4.0% 0.8% 1.5% 1.2%
x264 [info]: mb I I16..4: 15.9% 43.9% 40.1%
x264 [info]: mb P I16..4: 2.2% 7.7% 3.6% P16..4: 22.9% 19.7% 9.2% 2.7% 0.5% skip:31.6%
x264 [info]: mb B I16..4: 0.4% 0.9% 0.3% B16..8: 22.8% 11.0% 2.1% direct: 2.4% skip:60.1% L0:47.7% L1:45.9% BI: 6.4%
x264 [info]: 8x8 transform intra:54.2% inter:36.6%
x264 [info]: direct mvs spatial:99.9% temporal:0.1%
x264 [info]: coded y,uvDC,uvAC intra: 65.6% 72.0% 61.8% inter: 7.9% 8.1% 4.9%
x264 [info]: i16 v,h,dc,p: 55% 18% 8% 19%
x264 [info]: i8 v,h,dc,ddl,ddr,vr,hd,vl,hu: 12% 14% 18% 7% 8% 8% 10% 9% 14%
x264 [info]: i4 v,h,dc,ddl,ddr,vr,hd,vl,hu: 17% 14% 20% 7% 9% 8% 9% 7% 10%
x264 [info]: i8c dc,h,v,p: 38% 33% 17% 12%
x264 [info]: Weighted P-Frames: Y:2.5% UV:1.8%
x264 [info]: ref P L0: 56.8% 3.5% 14.9% 6.7% 4.3% 4.0% 2.9% 2.1% 1.5% 1.6% 1.4% 0.3% 0.0%
x264 [info]: ref B L0: 67.2% 13.2% 7.1% 3.5% 2.8% 2.1% 1.9% 1.2% 0.8% 0.3%
x264 [info]: ref B L1: 91.1% 8.9%
x264 [info]: kb/s:1574.66
x264 [total]: encoded 108910 frames, 13.76 fps, 1574.66 kb/s, duration 2:11:54.54
Format : Matroska
Format version : Version 4 / Version 2
File size : 1.31 GiB
Duration : 1h 15mn
Overall bit rate : 2 473 Kbps
Encoded date : UTC 2015-08-29 19:40:51
Writing application : mkvmerge v6.7.0 ('Back to the Ground') 32bit built on Jan 8 2014 15:03:17
Writing library : libebml v1.3.0 + libmatroska v1.4.1
Video
ID : 1
Format : AVC
Format/Info : Advanced Video Codec
Format profile : High@L4.1
Format settings, CABAC : Yes
Format settings, ReFrames : 11 frames
Codec ID : V_MPEG4/ISO/AVC
Duration : 1h 15mn
Bit rate : 1 528 Kbps
Width : 1 024 pixels
Height : 576 pixels
Display aspect ratio : 16:9
Frame rate mode : Constant
Frame rate : 23.976 fps
Color space : YUV
Chroma subsampling : 4:2:0
Bit depth : 8 bits
Scan type : Progressive
Bits/(Pixel*Frame) : 0.108
Stream size : 827 MiB (62%)
Title : Justice League: Gods and Monsters (2015) [rutracker.org]
Writing library : x264 core 148 r2579kMod 73ae2d1
Encoding settings : cabac=1 / ref=11 / deblock=1:-2:-1 / analyse=0x3:0x133 / me=umh / subme=11 / psy=1 / fade_compensate=0.00 / psy_rd=1.00:0.05 / mixed_ref=1 / me_range=32 / chroma_me=1 / trellis=2 / 8x8dct=1 / cqm=0 / deadzone=21,11 / fast_pskip=0 / chroma_qp_offset=-3 / threads=12 / lookahead_threads=3 / sliced_threads=0 / nr=0 / decimate=1 / interlaced=0 / bluray_compat=0 / constrained_intra=0 / fgo=0 / bframes=12 / b_pyramid=2 / b_adapt=2 / b_bias=0 / direct=3 / weightb=1 / open_gop=0 / weightp=2 / keyint=250 / keyint_min=23 / scenecut=40 / intra_refresh=0 / rc_lookahead=80 / rc=crf / mbtree=0 / crf=17.2000 / qcomp=0.60 / qpmin=0 / qpmax=69 / qpstep=4 / vbv_maxrate=50000 / vbv_bufsize=62500 / crf_max=0.0 / nal_hrd=none / filler=0 / ip_ratio=1.40 / pb_ratio=1.30 / aq=3:0.90
Language : English
Default : Yes
Forced : No
Audio #1
ID : 2
Format : AC-3
Format/Info : Audio Coding 3
Mode extension : CM (complete main)
Format settings, Endianness : Big
Codec ID : A_AC3
Duration : 1h 15mn
Bit rate mode : Constant
Bit rate : 448 Kbps
Channel(s) : 6 channels
Channel positions : Front: L C R, Side: L R, LFE
Sampling rate : 48.0 KHz
Compression mode : Lossy
Stream size : 243 MiB (18%)
Title : DVO
Language : Russian
Default : Yes
Forced : No
Audio #2
ID : 3
Format : AC-3
Format/Info : Audio Coding 3
Mode extension : CM (complete main)
Format settings, Endianness : Big
Codec ID : A_AC3
Duration : 1h 15mn
Bit rate mode : Constant
Bit rate : 448 Kbps
Channel(s) : 6 channels
Channel positions : Front: L C R, Side: L R, LFE
Sampling rate : 48.0 KHz
Compression mode : Lossy
Stream size : 243 MiB (18%)
Title : Original
Language : English
Default : No
Forced : No
Text #1
ID : 4
Format : UTF-8
Codec ID : S_TEXT/UTF8
Codec ID/Info : UTF-8 Plain Text
Title : Full
Language : Russian
Default : No
Forced : No
Text #2
ID : 5
Format : UTF-8
Codec ID : S_TEXT/UTF8
Codec ID/Info : UTF-8 Plain Text
Title : Full SDH
Language : English
Default : No
Forced : No
Menu
00:00:00.000 : en:00:00:00.000
00:09:13.803 : en:00:09:13.803
00:19:45.559 : en:00:19:45.559
00:29:25.555 : en:00:29:25.555
00:39:32.495 : en:00:39:32.495
00:49:10.990 : en:00:49:10.990
01:00:26.414 : en:01:00:26.414
01:09:52.105 : en:01:09:52.105
01:12:35.142 : en:01:12:35.142

Скриншоты




_________________
Показать сообщения:    

Текущее время: Сегодня 01:59

Часовой пояс: GMT



Вы не можете начинать темы
Вы не можете отвечать на сообщения
Вы не можете редактировать свои сообщения
Вы не можете удалять свои сообщения
Вы не можете голосовать в опросах
Вы не можете прикреплять файлы к сообщениям
Вы не можете скачивать файлы