Лето резни / The Summer of Massacre (Джо Кастро / Joe Castro) [2011, ужасы, триллер, BDRip] VO + Original Eng :: Ивановский Торрент трекер
Важное объявление!
У Нас Все раздачи мультитрекерные, при нуле пиров в релизах, можете смело вставать на закачку!
Статистика раздачи
Размер:     |    Зарегистрирован:     |    Скачан:     |   
Нет
 
     
 
 
Автор Сообщение

димитри37

Стаж:
4 года 3 месяца
Сообщений:
1236

Репутация: 127

[+] [-]
Вне форума [Профиль] [ЛС]

Лето резни / The Summer of Massacre
Страна: США
Жанр: ужасы, триллер
Год выпуска: 2011
Продолжительность: 01:37:04
Перевод: Одноголосый закадровый Васька Куролесов по субтитрам dsa69
Cубтитры: нет
Оригинальная аудиодорожка: английский
Режиссер: Джо Кастро / Joe Castro
В ролях: Шон Эбли, Тед Олдермен, Джерри Дж. Анджело, Николас Хэрнандез и др....
Описание: Это безумный фильм, но даже cамо слово "безумный" недостаточная характеристика этого фильма. Это поездка со скоростью не ниже 100 миль в час, и это демонстрация не одного, а множественных убийств- убийств маниакальных, ужасных, безостановочных...
Доп. информация: Фильм получил 22 награды в 16 американских и международных кинофестивалях, среди которых призы за "Лучший фильм ужасов" и "Лучшие спецэффекты".

Качество видео: BDRip [источник неизвестен]
Формат видео: AVI
Видео: 720x416 (1.73:1) 16:9, 23.976 fps, XviD MPEG-4 ~ 1458 kbps avg, 0.20 bit/pixel
Аудио: RUS 48 kHz, MPEG Layer 3, 2 ch, 256.00 kbps avg
Аудио 2: ENG 48 kHz, AC3 Dolby Digital, 2/0 (L,R) ch, 448.00 kbps

MediaInfo

C:\The Summer of Massacre (2011) BRRip_KypoJIecoB.avi
General
Complete name : C:\The Summer of Massacre (2011) BRRip_KypoJIecoB.avi
Format : AVI
Format/Info : Audio Video Interleave
File size : 1.48 GiB
Duration : 1h 37mn
Overall bit rate : 2 176 Kbps
Writing application : VirtualDubMod 1.5.10.2 (build 2540/release)
Writing library : VirtualDubMod build 2540/release
Video #0
ID : 0
Format : MPEG-4 Visual
Format profile : Advanced Simple@L5
Format settings, BVOP : 2
Format settings, QPel : No
Format settings, GMC : No warppoints
Format settings, Matrix : Default (H.263)
Muxing mode : Packed bitstream
Codec ID : XVID
Codec ID/Hint : XviD
Duration : 1h 37mn
Bit rate : 1 458 Kbps
Width : 720 pixels
Height : 416 pixels
Display aspect ratio : 1.731
Frame rate : 23.976 fps
Color space : YUV
Chroma subsampling : 4:2:0
Bit depth : 8 bits
Scan type : Progressive
Compression mode : Lossy
Bits/(Pixel*Frame) : 0.203
Stream size : 1 013 MiB (67%)
Writing library : XviD 1.2.1 (UTC 2008-12-04)
Audio #1
ID : 1
Format : MPEG Audio
Format version : Version 1
Format profile : Layer 3
Codec ID : 55
Codec ID/Hint : MP3
Duration : 1h 37mn
Bit rate mode : Constant
Bit rate : 256 Kbps
Channel(s) : 2 channels
Sampling rate : 48.0 KHz
Compression mode : Lossy
Stream size : 178 MiB (12%)
Alignment : Aligned on interleaves
Interleave, duration : 42 ms (1.00 video frame)
Interleave, preload duration : 504 ms
Audio #2
ID : 2
Format : AC-3
Format/Info : Audio Coding 3
Mode extension : CM (complete main)
Format settings, Endianness : Big
Codec ID : 2000
Duration : 1h 37mn
Bit rate mode : Constant
Bit rate : 448 Kbps
Channel(s) : 2 channels
Channel positions : Front: L R
Sampling rate : 48.0 KHz
Bit depth : 16 bits
Compression mode : Lossy
Stream size : 311 MiB (21%)
Alignment : Split accross interleaves
Interleave, duration : 42 ms (1.00 video frame)
Interleave, preload duration : 500 ms

Скриншот c названием фильма

Скриншоты

-
Показать сообщения:    

Текущее время: Сегодня 05:44

Часовой пояс: GMT



Вы не можете начинать темы
Вы не можете отвечать на сообщения
Вы не можете редактировать свои сообщения
Вы не можете удалять свои сообщения
Вы не можете голосовать в опросах
Вы не можете прикреплять файлы к сообщениям
Вы не можете скачивать файлы