Ивановский Торрент трекер
Яндекс.Погода
 

[Цитировать]
HUNTER

Лето волков / Капли крови на цветущем вереске-Год выпуска: 2011
Страна: Россия
Жанр: драма, военный
Продолжительность: 6 х ~ 00:50:00
Кол-во серий: 6 серий из 6
Перевод: оригинал
Субтитры: нет-В ролях: Алексей Бардуков, Анна Полупанова, Максим Житник, Алексей Морозов, Игорь Скляр, Юлия Пересильд, Сергей Колтаков, Мария Куликова, Александр Воробьёв, Вера Кавалерова, Денис Карасев, Мария Звонарева, Михаил Евланов, Ольга Прохватыло, Олег Тактаров, Алексей Вертинский, Петр Ступин, Ольга Онищенко, Сергей Власов, Петр Томашевский, Николай Голубев, Сергей Власов, Анна Полупанова, Александра Богданова, Юлия Полубинская, Екатерина Вежновец, Александр Брухацкий, Виктор Богушевич, Геннадий Гарбук, Людмила Разумова, Татьяна Мархель, Валентина Лосовская, Алексей Соров, Александр Маслов, Сергей Друзьяк, Ян Цапник, Александр Иванов, Владимир Маслаков
Режиссёр: Дмитрий Иосифов-Описание: кранизация романа В.Смирнова "Тревожный месяц вересень" и ремейк одноименного фильма 1976 года. Белорусская деревня, 1944 год - времена, когда наша земля была освобождена от оккупантов. Приход советских войск в Белоруссию был воспринят неоднозначно. Молодой лейтенант, получив отпуск после ранения, приезжает в родные места: здесь, по фронтовым понятиям, глубокий тыл. Окружённое лесами село мало изменилось, война почти не тронула его. Но всё то и не то... Любимая девушка, давшая обещание "ждать вечно", не хочет даже разговаривать, земляки избегают его, а самый близкий человек, бабка, добрый ангел детства, умоляет снять награды с гимнастерки и ни за что не ходить в лес. Жестокие убийства заставляют фронтовика вступить в борьбу с теми, кто таится в лесных чащобах. Но, чтобы добраться до убийц, предстоит выяснить, кто из односельчан связан с ними…-Качество: DVD5
Формат: MPEG-PS
Видео кодек: MPEG Video
Аудио кодек: AC3
Видео: MPEG2 Video (720x576@1024x576) (16:9) 25.00fps 8000kbps
Аудио: Dolby AC3 48000Hz 6ch 384kbps-

minfo

General
Complete name :\Leto_volkov_(6_serij_iz_6)_2011_by_demonvideo_DVD_5\VIDEO_TS\VTS_02_1.VOB
Format : MPEG-PS
File size : 1 024 MiB
Duration : 19mn 20s
Overall bit rate mode : Variable
Overall bit rate : 7 405 Kbps
Video
ID : 224 (0xE0)
Format : MPEG Video
Format version : Version 2
Format profile : Main@Main
Format settings, BVOP : Yes
Format settings, Matrix : Custom
Duration : 19mn 20s
Bit rate mode : Variable
Bit rate : 6 873 Kbps
Maximum bit rate : 8 000 Kbps
Width : 720 pixels
Height : 576 pixels
Display aspect ratio : 16:9
Frame rate : 25.000 fps
Standard : PAL
Color space : YUV
Chroma subsampling : 4:2:0
Bit depth : 8 bits
Scan type : Progressive
Compression mode : Lossy
Bits/(Pixel*Frame) : 0.663
Stream size : 951 MiB (93%)
Audio
ID : 189 (0xBD)-128 (0x80)
Format : AC-3
Format/Info : Audio Coding 3
Mode extension : CM (complete main)
Muxing mode : DVD-Video
Duration : 19mn 19s
Bit rate mode : Constant
Bit rate : 384 Kbps
Channel(s) : 6 channels
Channel positions : Front: L C R, Side: L R, LFE
Sampling rate : 48.0 KHz
Bit depth : 16 bits
Compression mode : Lossy
Stream size : 53.1 MiB (5%)

Скриншоты

Показать сообщения:    

Текущее время: 25-Сен 10:30

Часовой пояс: UTC - 1


Вы не можете начинать темы
Вы не можете отвечать на сообщения
Вы не можете редактировать свои сообщения
Вы не можете удалять свои сообщения
Вы не можете голосовать в опросах
Вы не можете прикреплять файлы к сообщениям
Вы не можете скачивать файлы

!ВНИМАНИЕ!
Сайт не предоставляет электронные версии произведений, а занимается лишь коллекционированием и каталогизацией ссылок, присылаемых и публикуемых на форуме нашими читателями. Если вы являетесь правообладателем какого-либо представленного материала и не желаете, чтобы ссылка на него находилась в нашем каталоге, свяжитесь с нами, и мы незамедлительно удалим ее. Файлы для обмена на трекере предоставлены пользователями сайта, и администрация не несет ответственности за их содержание. Просьба не заливать файлы, защищенные авторскими правами, а также файлы нелегального содержания!