Ивановский Торрент трекер
Яндекс.Погода
 

[Цитировать]
HUNTER

Лерой и Стич / Leroy & Stitch
Страна : США
Жанр : мультфильм, фантастика, приключения, семейный
Продолжительность : 01:12:44
Год выпуска : 2006
Перевод 1 : Профессиональный (дублированный)
Перевод 2 : Профессиональный (многоголосый закадровый)
Перевод 3 : Авторский (одноголосый закадровый) Андрей Дольский
Русские субтитры : есть
Режиссёр : Тони Крэйг, Робертс Ганнавей / Tony Craig, Roberts Gannaway
Роли озвучивали: Дэйви Чейз, Крис Сандерс, Дэвид Огден Стайерз, Кевин МакДональд, Тиа Каррере, Кевин Майкл Ричардсон, Роб Полсен, Джефф Беннетт, Зои Колдуэлл, Боб Голдтуэйт
-

-
Описание : Мы знаем, что Стич был «Экспериментальным Образцом 626-м» — но интересовала ли Вас когда-нибудь судьба первых 625? На этот раз речь пойдет о новых шутках и проказах веселого и непоседливого инопланетянина, который свалился на планету Земля и прямиком угодил в семью Лило. Теперь Стич, Пликли и Джамба — члены одной семьи.
Но Лило и Стич еще не знают, что Джамба тайно отправил на Землю всех 625 инопланетных предшественников… и злобный Капитан Ганту намеревается отправить их всех обратно. Все зависит от Лило и Стича, смогут ли они спасти свою инопланетную родню?
Доп. информация : Релиз создан на основе скаченного файла: «Leroy & Stitch (2006) 1080p WEB-DL DD5.1 H.264-TrollHD». Я добавил русские аудио дороги (перевод) к этому видео, и добавил субтитры. Русские субтитры в сети не нашёл, сделал их сам на основе английских, перевод взят с дубляжа. Дубляж после подгонки к видео сохранил в другом формате.
Релиз : Страник 2.0
-

-
Качество : WEB-DL 1080p (Leroy & Stitch (2006) 1080p WEB-DL DD5.1 H.264-TrollHD)
Формат : MKV
Видео : AVC, 1916x1076 (16:9), 23.976 fps, ~4703 kbps avg, 0.096 bit/pixel
Аудио 1 : Русский, AC3, 48.0 kHz, 2 ch, ~256 kbps (Дублированный) Взят с ЭТОЙ раздачи, БОЛЬШОЕ СПАСИБО afedrenkv
Аудио 2 : Русский, AC3, 48.0 kHz, 6 ch, ~448 kbps (Многоголосый, закадровый)
Аудио 3 : Русский, AC3, 48.0 kHz, 2 ch, ~192 kbps (Одноголосый, закадровый) Взят с ЭТОЙ раздачи, БОЛЬШОЕ СПАСИБО FrodoNew
Аудио 4 : Английский, AC3, 48.0 kHz, 6 ch, ~384 kbps (Оригинал)
Субтитры : Русские, Английские (SubRip (srt))
-

MediaInfo

General Unique ID : 249162499959036541402429194638396014511 (0xBB72F3B43CAF944AB8023796B840BFAF) Complete name : E:/Torrent_2/Leroy.&.Stitch.2006.1080p.WEB-DL.DUB.MVO.AVO.Eng...Stranik.2.0.mkv Format : Matroska File size : 3.10 GiB Duration : 1h 12mn Overall bit rate : 6 107 Kbps Encoded date : UTC 2013-12-16 15:28:51 Writing application : mkvmerge v5.5.0 ('Healer') built on Apr 6 2012 21:43:24 Writing library : libebml v1.2.3 + libmatroska v1.3.0
Video #1 ID : 1 Format : AVC Format/Info : Advanced Video Codec Format profile : High@L4.0 Format settings, CABAC : Yes Format settings, ReFrames : 4 frames Format settings, GOP : M=2, N=29 Codec ID : V_MPEG4/ISO/AVC Duration : 1h 12mn Bit rate mode : Variable Bit rate : 4 705 Kbps Width : 1 916 pixels Height : 1 076 pixels Display aspect ratio : 16:9 Frame rate : 23.976 fps Color space : YUV Chroma subsampling : 4:2:0 Bit depth : 8 bits Scan type : Progressive Bits/(Pixel*Frame) : 0.095 Stream size : 2.39 GiB (77%) Language : English Color primaries : BT.709-5, BT.1361, IEC 61966-2-4, SMPTE RP177 Transfer characteristics : BT.709-5, BT.1361 Matrix coefficients : BT.709-5, BT.1361, IEC 61966-2-4 709, SMPTE RP177
Audio #2 ID : 2 Format : AC-3 Format/Info : Audio Coding 3 Mode extension : CM (complete main) Codec ID : A_AC3 Duration : 1h 12mn Bit rate mode : Constant Bit rate : 256 Kbps Channel(s) : 2 channels Channel positions : Front: L R Sampling rate : 48.0 KHz Bit depth : 16 bits Compression mode : Lossy Stream size : 133 MiB (4%) Title : Russian_DUB Language : Russian
Audio #3 ID : 3 Format : AC-3 Format/Info : Audio Coding 3 Mode extension : CM (complete main) Codec ID : A_AC3 Duration : 1h 12mn Bit rate mode : Constant Bit rate : 448 Kbps Channel(s) : 6 channels Channel positions : Front: L C R, Side: L R, LFE Sampling rate : 48.0 KHz Bit depth : 16 bits Compression mode : Lossy Stream size : 233 MiB (7%) Title : Russian_MVO Language : Russian
Audio #4 ID : 4 Format : AC-3 Format/Info : Audio Coding 3 Mode extension : CM (complete main) Codec ID : A_AC3 Duration : 1h 12mn Bit rate mode : Constant Bit rate : 192 Kbps Channel(s) : 2 channels Channel positions : Front: L R Sampling rate : 48.0 KHz Bit depth : 16 bits Compression mode : Lossy Stream size : 99.9 MiB (3%) Title : Russian_AVO Language : Russian
Audio #5 ID : 5 Format : AC-3 Format/Info : Audio Coding 3 Mode extension : CM (complete main) Codec ID : A_AC3 Duration : 1h 12mn Bit rate mode : Constant Bit rate : 384 Kbps Channel(s) : 6 channels Channel positions : Front: L C R, Side: L R, LFE Sampling rate : 48.0 KHz Bit depth : 16 bits Compression mode : Lossy Stream size : 200 MiB (6%) Title : English Language : English
Text #6 ID : 6 Format : UTF-8 Codec ID : S_TEXT/UTF8 Codec ID/Info : UTF-8 Plain Text Title : Rus Language : Russian
Text #7 ID : 7 Format : UTF-8 Codec ID : S_TEXT/UTF8 Codec ID/Info : UTF-8 Plain Text Title : Eng Language : English
Другие раздачи мультфильма


Показать сообщения:    

Текущее время: 16-Дек 01:18

Часовой пояс: UTC ± 0


Вы не можете начинать темы
Вы не можете отвечать на сообщения
Вы не можете редактировать свои сообщения
Вы не можете удалять свои сообщения
Вы не можете голосовать в опросах
Вы не можете прикреплять файлы к сообщениям
Вы не можете скачивать файлы

!ВНИМАНИЕ!
Сайт не предоставляет электронные версии произведений, а занимается лишь коллекционированием и каталогизацией ссылок, присылаемых и публикуемых на форуме нашими читателями. Если вы являетесь правообладателем какого-либо представленного материала и не желаете, чтобы ссылка на него находилась в нашем каталоге, свяжитесь с нами, и мы незамедлительно удалим ее. Файлы для обмена на трекере предоставлены пользователями сайта, и администрация не несет ответственности за их содержание. Просьба не заливать файлы, защищенные авторскими правами, а также файлы нелегального содержания!