Ленинград / Attack on Leningrad (Александр Буравский) [2009 г., Драма, военный, BDRip 1080p] :: Ивановский Торрент трекер
Важное объявление!
У Нас Все раздачи мультитрекерные, при нуле пиров в релизах, можете смело вставать на закачку!
Статистика раздачи
Размер:     |    Зарегистрирован:     |    Скачан:     |   
Нет
 
     
 
 
Автор Сообщение

HUNTER

Стаж:
4 года 11 месяцев
Сообщений:
66054

Репутация: 101

[+] [-]
Вне форума [Профиль] [ЛС]

Ленинград / Attack on Leningrad
Год выпуска: 2009
Страна: Россия
Жанр: Драма, военный
Продолжительность: 01:50:22
Перевод: Оригинал.Русские титры на иностранную речь
Русские субтитры: есть (на иностранную речь)
Режиссер: Александр Буравский
В ролях: Мира Сорвино, Армин Мюллер-Шталь, Ольга Сутулова, Михаил Ефремов, Гэбриел Бирн, Александр Абдулов, Александр Филлипенко, Сергей Никоненко
Описание: Зима 1941-го. С неба безостановочно сыплются бомбы, превращая дома в руины, а выживших, оставшихся без крова мерзнущих людей душит голод. Гитлер убежден, что блокада превратит ленинградцев в стадо диких зверей, рвущих друг у друга куски пищи. Но ленинградцы остаются людьми. В фильме две героини: Нина Цветкова и Кейт Дэвис. Одна — ленинградка, милиционерша, «рабочая косточка», истовая комсомолка, дочь героя Гражданской, зарубленного в бою с белогвардейцами. А другая — дворянка, родившаяся в Петербурге, дочь белого генерала, эмигрантка, космополитка, журналистка, абсолютно не приспособленная к жизни — не говоря уже о немыслимых тяготах блокады. Они должны быть врагами, но жизнь рассудит иначе. Жизнь, за которую они отчаянно борются.
Доп. информация: Русские субтитры: есть на иностранную речь (отключаемые)
Английские субтитры: есть на русскую речь (встроенные)
Качество: BDRip
Формат: MKV
Видео кодек: H.264
Аудио кодек: DTS
Видео: MPEG4 Video (H264), 1080p, 8793 Kбит/с, 1920x816, 2.35:1, 24.000 fps
Аудио: DTS, 6 ch, 1510 Кбит/с, 48.0 KHz

MediaInfo

General
Format : Matroska
File size : 7.93 GiB
Duration : 1h 50mn
Overall bit rate : 10.3 Mbps
Encoded date : UTC 2010-02-25 20:52:10
Writing application : mkvmerge v2.9.5 ('Tu es le seul') built on Jun 7 2009 11:07:07
Writing library : libebml v0.7.7 + libmatroska v0.8.1
Video
ID : 1
Format : AVC
Format/Info : Advanced Video Codec
Format profile : High@L4.1
Format settings, CABAC : Yes
Format settings, ReFrames : 5 frames
Muxing mode : Container profile=Unknown@4.1
Codec ID : V_MPEG4/ISO/AVC
Duration : 1h 50mn
Bit rate : 8 575 Kbps
Nominal bit rate : 8 793 Kbps
Width : 1 920 pixels
Height : 816 pixels
Display aspect ratio : 2.35:1
Frame rate : 24.000 fps
Resolution : 8 bits
Colorimetry : 4:2:0
Scan type : Progressive
Bits/(Pixel*Frame) : 0.228
Stream size : 6.61 GiB (83%)
Writing library : x264 core 80 r1376 3feaec2
Encoding settings : cabac=1 / ref=5 / deblock=1:0:0 / analyse=0x3:0x133 / me=umh / subme=7 / psy=1 / psy_rd=1.0:0.0 / mixed_ref=1 / me_range=16 / chroma_me=1 / trellis=1 / 8x8dct=1 / cqm=0 / deadzone=21,11 / fast_pskip=0 / chroma_qp_offset=-2 / threads=12 / sliced_threads=0 / nr=0 / decimate=1 / mbaff=0 / constrained_intra=0 / bframes=3 / b_pyramid=2 / b_adapt=1 / b_bias=0 / direct=1 / wpredb=1 / wpredp=2 / keyint=250 / keyint_min=25 / scenecut=40 / rc=2pass / mbtree=0 / bitrate=8793 / ratetol=1.0 / qcomp=0.60 / qpmin=10 / qpmax=51 / qpstep=4 / cplxblur=20.0 / qblur=0.5 / ip_ratio=1.40 / pb_ratio=1.30 / aq=1:1.00
Language : English
Audio
ID : 2
Format : DTS
Format/Info : Digital Theater Systems
Codec ID : A_DTS
Duration : 1h 50mn
Bit rate mode : Constant
Bit rate : 1 510 Kbps
Channel(s) : 6 channels
Channel positions : Front: L C R, Side: L R, LFE
Sampling rate : 48.0 KHz
Resolution : 24 bits
Stream size : 1.16 GiB (15%)
Language : Russian
Text
ID : 3
Format : UTF-8
Codec ID : S_TEXT/UTF8
Codec ID/Info : UTF-8 Plain Text
Language : Russian

Скриншоты




_________________
Показать сообщения:    

Текущее время: Сегодня 09:03

Часовой пояс: GMT



Вы не можете начинать темы
Вы не можете отвечать на сообщения
Вы не можете редактировать свои сообщения
Вы не можете удалять свои сообщения
Вы не можете голосовать в опросах
Вы не можете прикреплять файлы к сообщениям
Вы не можете скачивать файлы