Важное объявление!
У Нас Все раздачи мультитрекерные, при нуле пиров в релизах, можете смело вставать на закачку!
 
Автор Сообщение

HUNTER

Стаж:
4 года 9 месяцев
Сообщений:
65074

Репутация: 101

[+] [-]
Вне форума [Профиль] [ЛС]

Лейтенант Хорнблауэр : Раки и лягушатники / Hornblower : The Frogs and the Lobsters
Страна: Великобритания
Жанр: драма, приключения, военный
Год выпуска: 1999
Продолжительность: 01:40:03
Перевод: Профессиональный (многоголосый закадровый)
Cубтитры: нет
Режиссер: Эндрю Грив
В ролях: Йоан Гриффит, Роберт Линдсэй, Дориан Хили, Майкл Бирн, Роберт Баферст, Дункан Белл, Пол Копли, Шон Джилдер, Саймон Шерлок, Крис Барнс, Джейми Бамбер, Колин МакЛахлан, Роджер Май, Винсент Грасс, Ричард Ламсден, Фрэнк Бойс, Саймон Марки, Оливер Монтгомери, Луана Мота
Описание: После победы революции во Франции остатки армии короля Людовика нашли убежище в Англии. С помощью британского флота роялисты надеются вернуться на родину и восстановить монархию. На стороне французов в военной операции против республиканцев участвует лейтенант Горацио Хорнблауэр. В чужой стране среди ужасов гражданской войны он встречает свою первую любовь...
Сэмпл: http://multi-up.com/765743
Качество видео: DVDRip
Формат видео: AVI
Видео: 704x400 (1.76:1), 25 fps, XviD MPEG-4 ~781 kbps avg, 0.11 bit/pixel
Аудио: 48 kHz, AC3 Dolby Digital, 2/0 (L,R) ch, ~192 kbps

MediaInfo

Общее
Полное имя : D:\Hornblower.1-3.sezon.(8.serij).1996-2003.XViD.DVDRip\Hornblower второй сезон\Hornblower.S02E01.avi
Формат : AVI
Формат/Информация : Audio Video Interleave
Размер файла : 701 Мбайт
Продолжительность : 1 ч. 40 м.
Общий поток : 980 Кбит/сек
Программа кодирования : VirtualDubMod 1.5.4.1 (build 2178/release)
Библиотека кодирования : VirtualDubMod build 2178/release
Видео
Идентификатор : 0
Формат : MPEG-4 Visual
Профиль формата : Advanced Simple@L5
Параметр BVOP формата : 1
Параметр QPel формата : Нет
Параметр GMC формата : Без точки перехода
Параметр матрицы формата : Выборочная
Идентификатор кодека : XVID
Идентификатор кодека/Подсказка : XviD
Продолжительность : 1 ч. 40 м.
Битрейт : 781 Кбит/сек
Ширина : 704 пикселя
Высота : 400 пикселей
Соотношение сторон : 16:9
Частота кадров : 25,000 кадров/сек
Цветовое пространство : YUV
Субдискретизация насыщенности : 4:2:0
Битовая глубина : 8 бит
Тип развёртки : Прогрессивная
Метод сжатия : С потерями
Бит/(Пиксели*Кадры) : 0.111
Размер потока : 559 Мбайт (80%)
Библиотека кодирования : XviD 64
Аудио
Идентификатор : 1
Формат : AC-3
Формат/Информация : Audio Coding 3
Расширение режима : CM (complete main)
Параметр Endianness формата : Big
Идентификатор кодека : 2000
Продолжительность : 1 ч. 40 м.
Вид битрейта : Постоянный
Битрейт : 192 Кбит/сек
Каналы : 2 канала
Расположение каналов : Front: L R
Частота : 48,0 КГц
Битовая глубина : 16 бит
Метод сжатия : С потерями
Размер потока : 137 Мбайт (20%)
Выравнивание : Разделение по промежуткам
Продолжительность промежутка : 96 мс. (2,40 видеокадра)
Время предзагрузки промежутка : 96 мс.
Язык : Russian

Скриншот c названием фильма

Скриншоты

Лейтенант Хорнблауэр : Бунт / Hornblower : Mutiny
Страна: Великобритания
Жанр: драма, приключения, военный
Год выпуска: 2001
Продолжительность: 01:36:35
Перевод: Профессиональный (многоголосый закадровый)
Cубтитры: нет
Режиссер: Эндрю Грив
В ролях: Йоан Гриффит, Роберт Линдсэй, Дориан Хили, Майкл Бирн, Роберт Баферст, Дункан Белл, Пол Копли, Шон Джилдер, Саймон Шерлок, Крис Барнс, Джейми Бамбер, Колин МакЛахлан, Роджер Май, Винсент Грасс, Ричард Ламсден, Фрэнк Бойс, Саймон Марки, Оливер Монтгомери, Луана Мота
Описание: Война Англии и Испании продолжается в Новом Свете. Лейтенант Горацио Хорнблауэр служит на линейном корабле «Слава» под командованием легендарного капитана Сойера. На судно возложена миссия — уничтожить военную базу испанцев в Санто-Доминго. По мере приближения к Вест-Индии капитан ведёт себя всё более странно: отдаёт противоречивые приказы и жестоко наказывает любого, кто пытается их оспорить. Постепенно Сойер начинает подозревать своих офицеров в попытке поднять на корабле бунт.
Сэмпл: http://multi-up.com/764749
Качество видео: DVDRip
Формат видео: AVI
Видео: 704x464, 25 fps, XviD MPEG-4 ~821 kbps avg, 0.100 bit/pixel
Аудио: 48 kHz, AC3 Dolby Digital, 2/0 (L,R) ch, ~192 kbps

MediaInfo

Общее
Полное имя : D:\Hornblower.1-3.sezon.(8.serij).1996-2003.XViD.DVDRip\Hornblower второй сезон\Hornblower.S02E02.avi
Формат : AVI
Формат/Информация : Audio Video Interleave
Размер файла : 704 Мбайт
Продолжительность : 1 ч. 36 м.
Общий поток : 1020 Кбит/сек
Программа кодирования : VirtualDubMod 1.5.4.1 (build 2178/release)
Библиотека кодирования : VirtualDubMod build 2178/release
Видео
Идентификатор : 0
Формат : MPEG-4 Visual
Профиль формата : Advanced Simple@L5
Параметр BVOP формата : 1
Параметр QPel формата : Нет
Параметр GMC формата : Без точки перехода
Параметр матрицы формата : Выборочная
Идентификатор кодека : XVID
Идентификатор кодека/Подсказка : XviD
Продолжительность : 1 ч. 36 м.
Битрейт : 821 Кбит/сек
Ширина : 704 пикселя
Высота : 464 пикселя
Соотношение сторон : 3:2
Частота кадров : 25,000 кадров/сек
Цветовое пространство : YUV
Субдискретизация насыщенности : 4:2:0
Битовая глубина : 8 бит
Тип развёртки : Прогрессивная
Метод сжатия : С потерями
Бит/(Пиксели*Кадры) : 0.101
Размер потока : 567 Мбайт (81%)
Библиотека кодирования : XviD 64
Аудио
Идентификатор : 1
Формат : AC-3
Формат/Информация : Audio Coding 3
Расширение режима : CM (complete main)
Параметр Endianness формата : Big
Идентификатор кодека : 2000
Продолжительность : 1 ч. 36 м.
Вид битрейта : Постоянный
Битрейт : 192 Кбит/сек
Каналы : 2 канала
Расположение каналов : Front: L R
Частота : 48,0 КГц
Битовая глубина : 16 бит
Метод сжатия : С потерями
Размер потока : 132 Мбайт (19%)
Выравнивание : Разделение по промежуткам
Продолжительность промежутка : 96 мс. (2,40 видеокадра)
Время предзагрузки промежутка : 96 мс.

Скриншот c названием фильма

Скриншоты

Лейтенант Хорнблауэр : Возмездие / Hornblower : Retribution
Страна: Великобритания
Жанр: драма, приключения, военный
Год выпуска: 2001
Продолжительность: 01:36:28
Перевод: Профессиональный (многоголосый закадровый)
Cубтитры: нет
Режиссер: Эндрю Грив
В ролях: Йоан Гриффит, Роберт Линдсэй, Дориан Хили, Майкл Бирн, Роберт Баферст, Дункан Белл, Пол Копли, Шон Джилдер, Саймон Шерлок, Крис Барнс, Джейми Бамбер, Колин МакЛахлан, Роджер Май, Винсент Грасс, Ричард Ламсден, Фрэнк Бойс, Саймон Марки, Оливер Монтгомери, Луана Мота
Описание: Англичане пытаются уничтожить форт в Санто-Доминго — главную военную базу испанцев в Вест-Индии. Лейтенант Горацио Хорнблауэр высаживается у неприятельской крепости и готовится нанести внезапный удар по врагу.Однако необдуманные действия лейтенанта Бакленда, взявшего на себя командование операцией, в последний момент срывают планы англичан, и Хорнблауэр со своим отрядом оказывается под смертельным огнем испанцев.
Сэмпл: http://multi-up.com/765744
Качество видео: DVDRip
Формат видео: AVI
Видео: 704x464, 25 fps, XviD MPEG-4 ~821 kbps avg, 0.100 bit/pixel
Аудио: 48 kHz, AC3 Dolby Digital, 2/0 (L,R) ch, ~192 kbps

MediaInfo

Общее
Полное имя : D:\Hornblower.1-3.sezon.(8.serij).1996-2003.XViD.DVDRip\Hornblower второй сезон\Hornblower.S02E03.avi
Формат : AVI
Формат/Информация : Audio Video Interleave
Размер файла : 704 Мбайт
Продолжительность : 1 ч. 36 м.
Общий поток : 1020 Кбит/сек
Программа кодирования : VirtualDubMod 1.5.4.1 (build 2178/release)
Библиотека кодирования : VirtualDubMod build 2178/release
Видео
Идентификатор : 0
Формат : MPEG-4 Visual
Профиль формата : Advanced Simple@L5
Параметр BVOP формата : 1
Параметр QPel формата : Нет
Параметр GMC формата : Без точки перехода
Параметр матрицы формата : Выборочная
Идентификатор кодека : XVID
Идентификатор кодека/Подсказка : XviD
Продолжительность : 1 ч. 36 м.
Битрейт : 821 Кбит/сек
Ширина : 704 пикселя
Высота : 464 пикселя
Соотношение сторон : 3:2
Частота кадров : 25,000 кадров/сек
Цветовое пространство : YUV
Субдискретизация насыщенности : 4:2:0
Битовая глубина : 8 бит
Тип развёртки : Прогрессивная
Метод сжатия : С потерями
Бит/(Пиксели*Кадры) : 0.100
Размер потока : 567 Мбайт (80%)
Библиотека кодирования : XviD 64
Аудио
Идентификатор : 1
Формат : AC-3
Формат/Информация : Audio Coding 3
Расширение режима : CM (complete main)
Параметр Endianness формата : Big
Идентификатор кодека : 2000
Продолжительность : 1 ч. 36 м.
Вид битрейта : Постоянный
Битрейт : 192 Кбит/сек
Каналы : 2 канала
Расположение каналов : Front: L R
Частота : 48,0 КГц
Битовая глубина : 16 бит
Метод сжатия : С потерями
Размер потока : 133 Мбайт (19%)
Выравнивание : Разделение по промежуткам
Продолжительность промежутка : 96 мс. (2,40 видеокадра)
Время предзагрузки промежутка : 96 мс.

Скриншот c названием фильма

Скриншоты

1 сезон http://rutracker.org/forum/viewtopic.php?t=4193760
3 сезон http://rutracker.org/forum/viewtopic.php?t=4193811

_________________
Показать сообщения:    

Текущее время: Сегодня 07:00

Часовой пояс: GMT



Вы не можете начинать темы
Вы не можете отвечать на сообщения
Вы не можете редактировать свои сообщения
Вы не можете удалять свои сообщения
Вы не можете голосовать в опросах
Вы не можете прикреплять файлы к сообщениям
Вы не можете скачивать файлы