Важное объявление!
У Нас Все раздачи мультитрекерные, при нуле пиров в релизах, можете смело вставать на закачку!
 
Автор Сообщение

HUNTER

Стаж:
4 года 10 месяцев
Сообщений:
65522

Репутация: 101

[+] [-]
Вне форума [Профиль] [ЛС]

Лейтенант Печерский из Собибора
Год выпуска: 2013
Страна: Россия
Жанр: Документальный
Продолжительность: 00:39:36
Перевод: Не требуется
Русские субтитры: нет
Режиссер: Екатерина Гальперина
Описание: 14 октября 1943 года в нацистском лагере уничтожения Собибор вспыхнуло восстание. Его подняли сами заключенные — без помощи партизан, подполья, антифашистского сопротивления. Оружия у них не было. Они перебили эсэсовцев и вырвались на свободу. Это единственный случай за всю историю Третьего рейха, когда лагерное восстание увенчалось успехом.
Тип релиза: DVDRip
Контейнер: AVI
Видео: XviD MPEG-4, 704x512 (1.38:1), 25 fps, 1666 kbps avg
Аудио: MPEG Layer 3, 128.00 kbps avg, 48 kHz, 2 ch

MediaInfo

Format : AVI Format/Info : Audio Video Interleave File size : 459 MiB Duration : 39mn 35s Overall bit rate : 1 620 Kbps Writing application : MEncoder SVN-r30881(20100311-gcc4.3.3) Writing library : MPlayer Video #0 ID : 0 Format : MPEG-4 Visual Format profile : Advanced Simple@L5 Format settings, BVOP : 2 Format settings, QPel : No Format settings, GMC : No warppoints Format settings, Matrix : Default (H.263) Codec ID : XVID Codec ID/Hint : XviD Duration : 39mn 35s Bit rate : 1 480 Kbps Width : 640 pixels Height : 480 pixels Display aspect ratio : 4:3 Frame rate : 25.000 fps Color space : YUV Chroma subsampling : 4:2:0 Bit depth : 8 bits Scan type : Progressive Compression mode : Lossy Bits/(Pixel*Frame) : 0.193 Stream size : 419 MiB (91%) Writing library : XviD 1.2.1 (UTC 2008-12-04) Audio #1 ID : 1 Format : MPEG Audio Format version : Version 1 Format profile : Layer 3 Mode : Joint stereo Mode extension : MS Stereo Codec ID : 55 Codec ID/Hint : MP3 Duration : 39mn 35s Bit rate mode : Constant Bit rate : 128 Kbps Channel(s) : 2 channels Sampling rate : 44.1 KHz Compression mode : Lossy Delay relative to video : 40ms Stream size : 36.2 MiB (8%) Alignment : Aligned on interleaves Interleave, duration : 26 ms (0.65 video frame) Interleave, preload duration : 522 ms Writing library : LAME3.98

Скриншоты


_________________
Показать сообщения:    

Текущее время: Сегодня 21:37

Часовой пояс: GMT



Вы не можете начинать темы
Вы не можете отвечать на сообщения
Вы не можете редактировать свои сообщения
Вы не можете удалять свои сообщения
Вы не можете голосовать в опросах
Вы не можете прикреплять файлы к сообщениям
Вы не можете скачивать файлы