Ледяное сердце / Сердце зимой / Зима в сердце / Un coeur en hiver / A Heart in Winter (Клод Сотэ / Claude Sautet) [1992, Франция, Драма, Мелодрама, DVD9 (Custom)] 2 MVO + Sub Rus + Original Fre :: Ивановский Торрент трекер
Важное объявление!
У Нас Все раздачи мультитрекерные, при нуле пиров в релизах, можете смело вставать на закачку!
Статистика раздачи
Размер:     |    Зарегистрирован:     |    Скачан:     |   
Нет
 
     
 
 
Автор Сообщение

HUNTER

Стаж:
4 года 11 месяцев
Сообщений:
66066

Репутация: 101

[+] [-]
Вне форума [Профиль] [ЛС]

Ледяное сердце / Сердце зимой / Зима в сердце / Un coeur en hiver / A Heart in Winter
Страна:ФранцияСтудия:Canal+ [fr], Centre National de la Cinematographie (CNC), Cinea, D.A. Films, Film Par Film, France 3 Cinema, Investimage 3, Orly Films, Paravision International S.A., Sedif Productions, Sofica Creations, Sofinergie 1.Жанр:Драма, МелодрамаГод выпуска:1992
Продолжительность:01:40:23Перевод 1:Профессиональный многоголосый закадровыйПеревод 2:Профессиональный многоголосый закадровыйCубтитры:Русские
Премьера (мир):2.09.1992
Режиссер:Клод Сотэ / Claude SautetВ ролях:Даниэль Отёй — Стефан
Эммануэль Беар — Камилла
Андре Дюссолье — Максим
Элизабет Буржин — Элен
Брижит Катийон — Регина
Морис Гаррель — Лашом
Мириам Буайе — мадам Аме
Жан-Люк Бидо — Остенде
Жан-Клод Буйо — хозяин пивоварни
Жак Фьески — читатель в библиотеке
Доминик де Вильенкур — Кристоф
Описание:Стефан и Максим уже много лет ведут совместный бизнес по реставрации старых и изготовлению новых скрипок. Максим сообщает другу и партнеру, что в его жизни появилась женщина — красивая, талантливая скрипачка. Ее сердце потянулось к нему, и, будучи женщиной страстной и прямой, она призналась ему в этом.
Но Стефан отверг ее любовь, сказав, что не способен испытывать такие чувства. Более того, он даже сказал ей, что между ним и Максимом нет дружбы. Что это — Зима в сердце? Правдив ли Стефан сам перед собой, когда говорит, что живет как бы с запозданием, или в глубине души Стефан понимает, что недостоин ее.
Доп. информация:Исходник найден в сети.Первый MVO и русские субтитрывзяты из раздачи Myxaboy-[url=viewtopic.php?t=1088433]http://rutracker.org/forum/viewtopic.php?t=1088433[/url].Изначально 6 канальный звук был дутый.Даунмикс в (Dolby AC3, 2 ch) и синхронизацию дорожки сделал Нордер.Второй MVO взят из раздачи Miscast-[url=viewtopic.php?t=375216]http://rutracker.org/forum/viewtopic.php?t=375216[/url].Меню неотредактировано, переключение звуковых дорожек с пульта.Огромное Спасибо Всем, без чьей помощи этот релиз не состоялся бы!Сценарий:Клод Соте, Жак Фьески, Жером ТоннерПродюсер:Филипп Каркассон, Жан-Луи Ливи, Рафаэль БердугоОператор:Ив АнжелоХудожник:Кристиан Марти, Коринн Жорри, Фредерик БелвоксМонтаж:Жаклин Тьедо

Награды и номинации


Рецензия

Софт

PgcDemux 1.2.0.5 - разделение компонентов диска на файлы;
BeSweet+BeLight - MP3, AC3 -> Wav
Sound Forge pro 10 - Wav -> AC3
Subtitle Workshop, SubtitleCreator, DVDSubEdit (субтитры)
MuxMan DVD authoring Professional 1.4.4 - мультиплексирование и авторинг
DVDRemake Pro 3.6.3 - реавторинг DVD;
DVD Shrink 3.2 - Сэмпл
--
2-й MVO

Бонусы(без перевода)

DISSONANCES ET FUGUE-LE SECOND MOUVEMENT- Интервью создателей фильма.
Меню:Французский,анимированное, озвученное.Сэмпл:https://www.sendspace.com/file/9ufz22Тип релиза:DVD9 (Custom)
Контейнер:DVD-Video
Видео:PAL 16:9 (720x576) VBR, Auto Letterboxed, 6390 Кбит/сек, 25,000 кадров/секАудио 1:Французский:AC3, 2 ch, 48.0 KHz, 192 Кбит/сек / (Оригинал)Аудио 2:Русский:AC3, 2 ch, 48.0 KHz, 192 Кбит/сек / Профессиональный (многоголосый закадровый)Аудио 3:Русский:AC3, 2 ch, 48.0 KHz, 192 Кбит/сек / Профессиональный (многоголосый закадровый)Формат субтитров:prerendered (DVD/IDX+SUB)

Dvd Info

Title: W(media)
Size: 7.36 Gb ( 7 715 570 KBytes ) - DVD-9
Enabled regions: 1, 2, 3, 4, 5, 6, 7, 8
VTS_01 :
Play Length: 01:40:23
Video: PAL 16:9 (720x576) VBR, Auto Letterboxed
Audio:
Francais (Dolby AC3, 2 ch)
Russian (Dolby AC3, 2 ch)
Russian (Dolby AC3, 2 ch)
Subtitles:
Russian
VTS_02 :
Play Length: 00:50:41
Video: PAL 4:3 (720x576) VBR
Audio:
Francais (Dolby AC3, 2 ch)

Mediainfo

Общее
Полное имя : F:\Un coeur en hiver DVD-9_Custom\VIDEO_TS\VTS_01_2.VOB
Формат : MPEG-PS
Размер файла : 1024 Мбайт
Продолжительность : 20 м.
Режим общего битрейта : Переменный
Общий поток : 7107 Кбит/сек
Видео
Идентификатор : 224 (0xE0)
Формат : MPEG Video
Версия формата : Version 2
Профиль формата : Main@Main
Параметр BVOP формата : Да
Параметр матрицы формата : По умолчанию
Параметр GOP формата : M=3, N=13
Структура изображения : Frame
Продолжительность : 20 м.
Вид битрейта : Переменный
Битрейт : 6390 Кбит/сек
Максимальный битрейт : 8500 Кбит/сек
Ширина : 720 пикселей
Высота : 576 пикселей
Соотношение сторон : 2,40:1
Частота кадров : 25,000 кадров/сек
Стандарт вещания : PAL
Цветовое пространство : YUV
Субдискретизация насыщенности : 4:2:0
Битовая глубина : 8 бит
Тип развёртки : Чересстрочная
Порядок развёртки : Верхнее поле первое
Метод сжатия : С потерями
Бит/(Пиксели*Кадры) : 0.616
Временной код первого кадра : 10:20:21:00
Оригинал временного кода : Group of pictures header
GOP, открыто/закрыто : Открыто
Размер потока : 921 Мбайт (90%)
Основные цвета : BT.601 PAL
Характеристики трансфера : BT.470 System B, BT.470 System G
Коэффициенты матрицы : BT.601
Аудио #1
Идентификатор : 189 (0xBD)-128 (0x80)
Формат : AC-3
Формат/Информация : Audio Coding 3
Расширение режима : CM (complete main)
Параметр Endianness формата : Big
Режим смешивания : DVD-Video
Продолжительность : 20 м.
Вид битрейта : Постоянный
Битрейт : 192 Кбит/сек
Каналы : 2 канала
Расположение каналов : Front: L R
Частота : 48,0 КГц
Частота кадров : 31,250 кадров/сек (1536 spf)
Метод сжатия : С потерями
Задержка видео : -304 мс.
Размер потока : 27,7 Мбайт (3%)
Аудио #2
Идентификатор : 189 (0xBD)-129 (0x81)
Формат : AC-3
Формат/Информация : Audio Coding 3
Расширение режима : CM (complete main)
Параметр Endianness формата : Big
Режим смешивания : DVD-Video
Продолжительность : 20 м.
Вид битрейта : Постоянный
Битрейт : 192 Кбит/сек
Каналы : 2 канала
Расположение каналов : Front: L R
Частота : 48,0 КГц
Частота кадров : 31,250 кадров/сек (1536 spf)
Метод сжатия : С потерями
Задержка видео : -304 мс.
Размер потока : 27,7 Мбайт (3%)
Аудио #3
Идентификатор : 189 (0xBD)-130 (0x82)
Формат : AC-3
Формат/Информация : Audio Coding 3
Расширение режима : CM (complete main)
Параметр Endianness формата : Big
Режим смешивания : DVD-Video
Продолжительность : 20 м.
Вид битрейта : Постоянный
Битрейт : 192 Кбит/сек
Каналы : 2 канала
Расположение каналов : Front: L R
Частота : 48,0 КГц
Частота кадров : 31,250 кадров/сек (1536 spf)
Метод сжатия : С потерями
Задержка видео : -304 мс.
Размер потока : 27,7 Мбайт (3%)
Текст
Идентификатор : 189 (0xBD)-32 (0x20)
Формат : RLE
Формат/Информация : Run-length encoding
Режим смешивания : DVD-Video

Скриншоты меню

Скриншоты


Скриншоты дополнительных материалов


Релиз: Уважаемые пользователи!Найдите пару минут поблагодарить релизера и высказаться в топике раздачи.Ваше мнение - бальзам для раздающего и пища для ума остальным пользователям.[url=tracker.php?rid=15912358/]Мои раздачи[/url]

_________________
Показать сообщения:    

Текущее время: Сегодня 15:45

Часовой пояс: GMT



Вы не можете начинать темы
Вы не можете отвечать на сообщения
Вы не можете редактировать свои сообщения
Вы не можете удалять свои сообщения
Вы не можете голосовать в опросах
Вы не можете прикреплять файлы к сообщениям
Вы не можете скачивать файлы