Важное объявление!
У Нас Все раздачи мультитрекерные, при нуле пиров в релизах, можете смело вставать на закачку!
 
Автор Сообщение

HUNTER

Стаж:
4 года 9 месяцев
Сообщений:
65047

Репутация: 101

[+] [-]
Вне форума [Профиль] [ЛС]

-Ледниковый период 4: Континентальный дрейф / Ice Age: Continental Drift--
--Год выпуска: 2012
Выпущено: США , 20th Century Fox, Blue Sky Studios
Жанр: Мультфильм, комедия, приключения, семейный
Продолжительность: 01:27:45
Озвучка:Дубляж [Лицензия]
Субтитры: Русские,Английские, Украинские--Режиссер: Стив Мартино, Майк Тёрмайер--Описание: После приключений под землей прошло семь лет. Случился дрейф континентов. Главные герои мультфильма, отделённые от стада, вынуждены использовать айсберг в качестве плота. Они пересекают океан и попадают в неизвестные им ранее земли с экзотическими животными и пиратами, враждебно настроенными к ним. Скрэту удаётся получить свой жёлудь, но он перемещается в новые для него земли.--Качество: BDRip-AVC 1080p
Формат: MPEG-4
Видео кодек: H264
Видео: 5420Кбит/сек,1920х1080(16х9),в 25.000кадр/сек,AVC(Baseline@L4.2)(1Ref Frames)
Аудио кодек: AAC
Аудио Russian Dolby Digital 5.1:456Кбит/сек,44.1КГц,6каналов,AAC,(Version4)(LC)--

Рейтинги

--

Доп. информация:

Русская звуковая дорожка сделана путем наложения чистого голоса озвучивателей на центральный канал оригинальной дорожки. Качество идентично английской звуковой дорожке.
--

MediaInfo

Общее
Полное имя : D:\М У Л Ь Т Ф И Л Ь М Ы\Ice.Age.Continental.Drift.2012.BDRip.1080p.barm.mp4
Формат : MPEG-4
Профиль формата : Base Media
Идентификатор кодека : isom
Размер файла : 3,60 Гбайт
Продолжительность : 1 ч. 27 м.
Режим общего битрейта : Переменный
Общий поток : 5880 Кбит/сек
Дата кодирования : UTC 2013-01-16 03:11:15
Дата пометки : UTC 2013-01-16 03:11:15
Программа кодирования : Lavf51.12.1
Видео
Идентификатор : 1
Формат : AVC
Формат/Информация : Advanced Video Codec
Профиль формата : [url=mailto:Baseline@L4.2]Baseline@L4.2[/url]
Параметр CABAC формата : Нет
Параметр ReFrames формата : 1 кадр
Параметр GOP формата : M=1, N=12
Идентификатор кодека : avc1
Идентификатор кодека/Информация : Advanced Video Coding
Продолжительность : 1 ч. 27 м.
Вид битрейта : Переменный
Битрейт : 5420 Кбит/сек
Максимальный битрейт : 7800 Кбит/сек
Ширина : 1920 пикселей
Высота : 1080 пикселей
Соотношение сторон : 16:9
Режим частоты кадров : Постоянный
Частота кадров : 25,000 кадров/сек
Частота кадров в оригинале : 24,000 кадра/сек
Цветовое пространство : YUV
Субдискретизация насыщенности : 4:2:0
Битовая глубина : 8 бит
Тип развёртки : Прогрессивная
Бит/(Пиксели*Кадры) : 0.105
Размер потока : 3,32 Гбайт (92%)
Дата кодирования : UTC 2013-01-16 03:11:15
Дата пометки : UTC 2013-01-16 03:11:15
Аудио
Идентификатор : 2
Формат : AAC
Формат/Информация : Advanced Audio Codec
Профиль формата : LC
Идентификатор кодека : 40
Продолжительность : 1 ч. 27 м.
Вид битрейта : Переменный
Битрейт : 456 Кбит/сек
Каналы : 6 каналов
Расположение каналов : Front: L C R, Side: L R, LFE
Частота : 44,1 КГц
Метод сжатия : С потерями
Размер потока : 286 Мбайт (8%)
Дата кодирования : UTC 2013-01-16 03:11:15
Дата пометки : UTC 2013-01-16 03:11:15
--

Скриншоты

-- ---Релиз от: Nikolai.Baranov --

_________________
Показать сообщения:    

Текущее время: Сегодня 23:14

Часовой пояс: GMT



Вы не можете начинать темы
Вы не можете отвечать на сообщения
Вы не можете редактировать свои сообщения
Вы не можете удалять свои сообщения
Вы не можете голосовать в опросах
Вы не можете прикреплять файлы к сообщениям
Вы не можете скачивать файлы