Ивановский Торрент трекер
Яндекс.Погода
 

[Цитировать]
HUNTER

-Ледниковый период 4: Континентальный дрейф
-Ice Age: Continental Drift- Страна: США
Жанр: мультфильм, комедия, приключения, семейный
Год выпуска: 2012
Продолжительность: 01:27:45
Перевод: Профессиональный (полное дублирование)
Cубтитры: русские, английские-Режиссер: Стив Мартино, Майк Тёрмайер / Steve Martino, Mike Thurmeier-Роли озвучивали: Рэй Романо, Джон Легуизамо, Куин Латифа, Дэнис Лири, Джош Пек, Питер Динклэйдж, Кеке Палмер, Дженнифер Лопез, Ник Фрост, Бен Глейб, Хезер Моррис, Шонн Уильям Скотт, Ванда Сайкес-Описание: После приключений под землей прошло семь лет. Случился дрейф континентов. Главные герои мультфильма, отделённые от стада, вынуждены использовать айсберг в качестве плота. Они пересекают океан и попадают в неизвестные им ранее земли с экзотическими животными и пиратами, враждебно настроенными к ним. Скрэту удаётся получить свой жёлудь, но он перемещается в новые для него земли...-Доп. материалы: нет-Меню: частично анимированное, озвученное- -Тип релиза: DVD5 (Custom)
Контейнер: DVD-Video-Видео: NTSC 16:9 (720x480) VBR
Аудио 1: English (Dolby AC3, 6 ch, 448 kbps)
Аудио 2: Russian (Dolby AC3, 6 ch, 448 kbps)-Доп. информация: данный ДВД создан из BDRemux (спасибо за него DFCbit).
Звуковые дорожки пересжимались с помощью Tranzcodequi и Sony Vegas 7.0. Обработка видео проходила по инструкции Mikky72 с помощью Carbon Coder в 2 прохода. Меню взято с DVD R1.

DVDInfo

Title: Ice_Age_4._Continental_Drift_[DVD5]
Size: 4.35 Gb ( 4 563 258,00 KBytes ) - DVD-5
Enabled regions: 1, 2, 3, 4, 5, 6, 7, 8
VTS_01 :
Play Length: 00:00:01+00:00:00
Video: NTSC 16:9 (720x480) VBR, Auto Letterboxed
Audio:
English (Dolby AC3, 2 ch)
Portugues (Dolby AC3, 2 ch)
Subtitles:
Portugues
Portugues
VTS_02 :
Play Length: 01:27:41+{00:00:01}
Video: NTSC 16:9 (720x480) VBR, Auto Letterboxed
Audio:
Russian, AC3, 3/2 (L,C,R,SL,SR)+LFE ch, 448 kbps, Delay -49 mSec
English, AC3, 3/2 (L,C,R,SL,SR)+LFE ch, 448 kbps, Delay -49 mSec
Subtitles:
Russian
English
VTS_03 :
Play Length: 00:00:15+00:00:13+00:00:07
Video: NTSC 16:9 (720x480) VBR, Auto Pan&Scan
VTS_04 :
Play Length: 00:00:26
Video: NTSC 16:9 (720x480) VBR, Auto Letterboxed
Audio:
Not specified (Dolby AC3, 6 ch)
VTS_05 :
Play Length: 00:00:01+00:00:01+00:00:01+00:00:00
Video: NTSC 16:9 (720x480) VBR, Auto Letterboxed
Audio:
English (Dolby AC3, 2 ch)
Subtitles:
Portugues

MediaInfo по первому VOB'у

General
Complete name : C:\Ice_Age_4._Continental_Drift_[DVD5]\VIDEO_TS\VTS_02_1.VOB
Format : MPEG-PS
File size : 1 024 MiB
Duration : 18mn 2s
Overall bit rate : 7 938 Kbps
Video
ID : 224 (0xE0)
Format : MPEG Video
Format version : Version 2
Format profile : Main@Main
Format settings, BVOP : Yes
Format settings, Matrix : Custom
Duration : 18mn 2s
Bit rate mode : Variable
Bit rate : 6 884 Kbps
Width : 720 pixels
Height : 480 pixels
Display aspect ratio : 16:9
Frame rate : 23.976 fps
Standard : NTSC
Color space : YUV
Chroma subsampling : 4:2:0
Bit depth : 8 bits
Scan type : Progressive
Scan order : 2:3 Pulldown
Compression mode : Lossy
Bits/(Pixel*Frame) : 0.831
Stream size : 888 MiB (87%)
Audio #1
ID : 189 (0xBD)-128 (0x80)
Format : AC-3
Format/Info : Audio Coding 3
Mode extension : CM (complete main)
Muxing mode : DVD-Video
Duration : 18mn 1s
Bit rate mode : Constant
Bit rate : 448 Kbps
Channel(s) : 6 channels
Channel positions : Front: L C R, Side: L R, LFE
Sampling rate : 48.0 KHz
Bit depth : 16 bits
Compression mode : Lossy
Delay relative to video : -49ms
Stream size : 57.8 MiB (6%)
Audio #2
ID : 189 (0xBD)-129 (0x81)
Format : AC-3
Format/Info : Audio Coding 3
Mode extension : CM (complete main)
Muxing mode : DVD-Video
Duration : 18mn 1s
Bit rate mode : Constant
Bit rate : 448 Kbps
Channel(s) : 6 channels
Channel positions : Front: L C R, Side: L R, LFE
Sampling rate : 48.0 KHz
Bit depth : 16 bits
Compression mode : Lossy
Delay relative to video : -49ms
Stream size : 57.8 MiB (6%)
Text #1
ID : 189 (0xBD)-32 (0x20)
Format : RLE
Format/Info : Run-length encoding
Muxing mode : DVD-Video
Text #2
ID : 189 (0xBD)-33 (0x21)
Format : RLE
Format/Info : Run-length encoding
Muxing mode : DVD-Video
Menu

Бриф по изготовлению

Видео
Rhozet Carbon Coder - конвертация видео
AviSynth - обработка видео
FFMpegSource2 - индексирование
Звук
MKVextractGUI - извление исходных дорожек из файла
TranzcodeGUI - извлечение WAV
Sonic Vegas 7.0 - конвертация из формата WAV в AC3
Субтитры
MKVextractGUI - извлечение
Txt2sup - конвертирование
DVDRemake Pro - корректировка цветовых схем
Меню и реавторинг
DVDRemake Pro - авторинг диска
Adobe Photoshop - редактирование меню

Настройки программ

Скрипт

LoadPlugin("C:\Program Files\ffms-2.17\ffms2.dll")
FFVideoSource("C:\BD-DVD\Ice.Age.IV.2012.BDRemux.1080p.Rus.Video.mkv")
LoadPlugin("C:\Program Files\AutoYUY2\AutoYUY2.dll")
LoadPlugin("C:\Program Files\ColorMatrix\ColorMatrix.dll")
AutoYUY2()
ColorMatrix(mode="Rec.709->Rec.601", inputFR=false, clamp=0)
BicubicResize(720, 480, 0, 0.5)
AssumeFPS ("ntsc_film")
AddBorders (0,0,0,0) #bbb=00

Скриншоты меню



Показать сообщения:    

Текущее время: 18-Дек 03:28

Часовой пояс: UTC ± 0


Вы не можете начинать темы
Вы не можете отвечать на сообщения
Вы не можете редактировать свои сообщения
Вы не можете удалять свои сообщения
Вы не можете голосовать в опросах
Вы не можете прикреплять файлы к сообщениям
Вы не можете скачивать файлы

!ВНИМАНИЕ!
Сайт не предоставляет электронные версии произведений, а занимается лишь коллекционированием и каталогизацией ссылок, присылаемых и публикуемых на форуме нашими читателями. Если вы являетесь правообладателем какого-либо представленного материала и не желаете, чтобы ссылка на него находилась в нашем каталоге, свяжитесь с нами, и мы незамедлительно удалим ее. Файлы для обмена на трекере предоставлены пользователями сайта, и администрация не несет ответственности за их содержание. Просьба не заливать файлы, защищенные авторскими правами, а также файлы нелегального содержания!