Ивановский Торрент трекер
Яндекс.Погода
 

[Цитировать]
HUNTER

| Все релизы мультфильма || BDRip-AVC, 2.91 GB |- P R E S E N T SЛедниковый период 4: Континентальный дрейф / Ice Age: Continental Drift- Страна: США
Жанр: мультфильм, комедия, приключения, семейный
Продолжительность: 01:27:45
Год выпуска: 2012
Перевод: Профессиональный (полное дублирование)
Субтитры: есть
Навигация по главам: есть (24 не именованных главы)-Режиссёр: Стив Мартино, Майк Тёрмайер / Steve Martino, Mike Thurmeier
Роли озвучивали: Рэй Романо, Джон Легуизамо, Куин Латифа, Дэнис Лири, Джош Пек, Питер Динклэйдж, Кеке Палмер, Дженнифер Лопез, Ник Фрост, Бен Глейб, Хезер Моррис, Шонн Уильям Скотт, Ванда Сайкес...
Роли дублировали: Степан Старчиков, Антон Комолов, Ольга Шелест, Александр Груздев, Илья Бледный, Иван Охлобыстин, Вероника Саркисова, Альбина Джанабаева, Александр Невский, Даниил Эльдаров, Полина Быстрицкая, Андрей Бархударов, Александра Назарова-| |-Описание: После приключений под землей прошло семь лет. Случился дрейф континентов. Главные герои мультфильма, отделённые от стада, вынуждены использовать айсберг в качестве плота. Они пересекают океан и попадают в неизвестные им ранее земли с экзотическими животными и пиратами, враждебно настроенными к ним. Скрэту удаётся получить свой жёлудь, но он перемещается в новые для него земли...-Доп. информация: Полноформатный рип 1152х480, сделан с Blu-Ray диска Ice Age: Continental Drift 2012 1080p AVC DTS-HD MA 5.1-HDChina. Оригинальный англоязычный видеоряд.
Ввиду ряда особенностей BD CEE, привожу для информации BDInfo Blu-Ray'я с которого я делал свой рип.

BDInfo

DISC INFO:
Disc Title: Ice Age: Continental Drift 2012 1080p AVC DTS-HD MA 5.1-HDChinaDisc Size: 31,261,059,494 bytesProtection: AACSBD-Java: YesBDInfo: 0.5.8
PLAYLIST REPORT:
Name: 00800.MPLSLength: 1:27:45.301 (h:m:s.ms)Size: 27,877,324,800 bytesTotal Bitrate: 42.36 Mbps
VIDEO:
Codec Bitrate Description----- ------- -----------MPEG-4 AVC Video 34984 kbps 1080p / 23.976 fps / 16:9 / High Profile 4.1
AUDIO:
Codec Language Bitrate Description----- -------- ------- -----------DTS-HD Master Audio English 4725 kbps 7.1 / 48 kHz / 4725 kbps / 24-bit (DTS Core: 5.1 / 48 kHz / 1509 kbps / 24-bit)Dolby Digital Audio Portuguese 448 kbps 5.1 / 48 kHz / 448 kbps
SUBTITLES:
Codec Language Bitrate Description----- -------- ------- -----------Presentation Graphics English 31.603 kbpsPresentation Graphics Portuguese 29.285 kbps
-Сэмпл/Sample |<->| Зеркала (46.67 MB, 1 минута)-Качество: BDRip-AVC
Формат: MKV
Видео: 1152x480 (2.40:1) , 23,976 fps, ~3394 kbps avg, 0.256 bit/pixel
Аудио #1: Русский, 48.0 KHz, AC3, 6 ch, 448 Kbps - Дубляж | BD CEE
Аудио #2: Украинский, 48.0 KHz, AC3, 6 ch, 448 Kbps - Дубляж | BD CEE
Аудио #3: English, 48.0 KHz, AC3, 6 ch, 448 Kbps - Original
Субтитры: Русские (BD CEE), Украинские (BD CEE), English

MediaInfo / x264Log

x264Log

raw [info]: 1152x480p 1:1 @ 24000/1001 fps (cfr)x264 [info]: using SAR=1/1x264 [info]: using cpu capabilities: MMX2 SSE2Fast SSSE3 FastShuffle SSE4.2x264 [info]: profile High, level 4.1x264 [info]: frame I:1184 Avg QP:14.96 size: 99667 PSNR Mean Y:47.86 U:49.98 V:49.84 Avg:48.43 Global:48.02x264 [info]: frame P:29844 Avg QP:16.50 size: 34567 PSNR Mean Y:46.80 U:49.37 V:49.17 Avg:47.45 Global:46.80x264 [info]: frame B:95212 Avg QP:19.97 size: 11385 PSNR Mean Y:45.88 U:48.96 V:48.68 Avg:46.63 Global:45.91x264 [info]: consecutive B-frames: 2.6% 2.7% 13.6% 28.2% 18.9% 24.3% 2.7% 5.3% 0.6% 0.4% 0.7%x264 [info]: mb I I16..4: 5.2% 68.8% 26.0%x264 [info]: mb P I16..4: 1.3% 19.8% 3.5% P16..4: 22.5% 24.7% 12.9% 3.2% 0.4% skip:11.7%x264 [info]: mb B I16..4: 0.3% 3.4% 0.4% B16..8: 26.2% 19.0% 3.8% direct: 5.1% skip:41.8% L0:35.8% L1:41.1% BI:23.1%x264 [info]: 8x8 transform intra:80.2% inter:54.3%x264 [info]: coded y,uvDC,uvAC intra: 88.9% 89.6% 74.7% inter: 22.8% 16.9% 5.3%x264 [info]: i16 v,h,dc,p: 23% 12% 5% 60%x264 [info]: i8 v,h,dc,ddl,ddr,vr,hd,vl,hu: 9% 13% 8% 8% 11% 10% 13% 11% 16%x264 [info]: i4 v,h,dc,ddl,ddr,vr,hd,vl,hu: 7% 12% 7% 8% 16% 13% 15% 9% 14%x264 [info]: i8c dc,h,v,p: 39% 27% 15% 19%x264 [info]: Weighted P-Frames: Y:2.1% UV:1.6%x264 [info]: ref P L0: 53.1% 11.8% 16.3% 6.0% 4.1% 3.1% 2.5% 1.5% 1.4% 0.3% 0.0%x264 [info]: ref B L0: 82.3% 9.0% 4.2% 1.8% 1.2% 0.8% 0.5% 0.2%x264 [info]: ref B L1: 94.0% 6.0%x264 [info]: SSIM Mean Y:0.9875552 (19.050db)x264 [info]: PSNR Mean Y:46.118 U:49.065 V:48.805 Avg:46.843 Global:46.122 kb/s:3393.66encoded 126240 frames, 4.69 fps, 3393.66 kb/s
GeneralUnique ID : 191988473065673351482685618303306414327 (0x906FA28A7930234F966CF847ACBDB8F7)Complete name : Ice.Age.IV.2012.BDRip.480p.tRuAVC.&.Multfilmy.mkvFormat : MatroskaFormat version : Version 2File size : 2.91 GiBDuration : 1h 27mnOverall bit rate : 4 740 KbpsEncoded date : UTC 2012-10-25 16:36:39Writing application : mkvmerge v4.0.0 ('The Stars were mine') built on Jun 6 2010 16:18:42Writing library : libebml v1.0.0 + libmatroska v1.0.0
VideoID : 1Format : AVCFormat/Info : Advanced Video CodecFormat profile : High@L4.1Format settings, CABAC : YesFormat settings, ReFrames : 9 framesCodec ID : V_MPEG4/ISO/AVCDuration : 1h 27mnBit rate : 3 394 KbpsWidth : 1 152 pixelsHeight : 480 pixelsDisplay aspect ratio : 2.40:1Frame rate : 23.976 fpsColor space : YUVChroma subsampling : 4:2:0Bit depth : 8 bitsScan type : ProgressiveBits/(Pixel*Frame) : 0.256Stream size : 2.08 GiB (70%)Title : NTSC, 1152x480 (2.40:1) BDRip - tRuAVC & Multfilmy [DFCbit]Writing library : x264 core 128 r2216kMod 198a7eaEncoding settings : cabac=1 / ref=9 / deblock=1:-2:-1 / analyse=0x3:0x133 / me=umh / subme=11 / psy=1 / fade_compensate=0.00 / psy_rd=0.60:0.00 / mixed_ref=1 / me_range=32 / chroma_me=1 / trellis=2 / 8x8dct=1 / cqm=0 / deadzone=21,11 / fast_pskip=0 / chroma_qp_offset=-2 / threads=6 / lookahead_threads=1 / sliced_threads=0 / nr=0 / decimate=1 / interlaced=0 / bluray_compat=0 / constrained_intra=0 / bframes=10 / b_pyramid=2 / b_adapt=2 / b_bias=0 / direct=1 / weightb=1 / open_gop=0 / weightp=2 / keyint=250 / keyint_min=23 / scenecut=40 / intra_refresh=0 / rc_lookahead=70 / rc=crf / mbtree=0 / crf=17.2440 / qcomp=0.80 / qpmin=0 / qpmax=69 / qpstep=4 / vbv_maxrate=50000 / vbv_bufsize=62500 / crf_max=0.0 / nal_hrd=none / ip_ratio=1.40 / pb_ratio=1.30 / aq=3:0.90Language : EnglishDefault : YesForced : NoColor primaries : BT.709-5, BT.1361, IEC 61966-2-4, SMPTE RP177Transfer characteristics : BT.709-5, BT.1361Matrix coefficients : BT.709-5, BT.1361, IEC 61966-2-4 709, SMPTE RP177
Audio #1ID : 2Format : AC-3Format/Info : Audio Coding 3Mode extension : CM (complete main)Codec ID : A_AC3Duration : 1h 27mnBit rate mode : ConstantBit rate : 448 KbpsChannel(s) : 6 channelsChannel positions : Front: L C R, Side: L R, LFESampling rate : 48.0 KHzBit depth : 16 bitsCompression mode : LossyStream size : 281 MiB (9%)Title : AC3, 6 ch, 48 kHz, 448 kbps, Dubbing [BD CEE]Language : RussianDefault : YesForced : No
Audio #2ID : 3Format : AC-3Format/Info : Audio Coding 3Mode extension : CM (complete main)Codec ID : A_AC3Duration : 1h 27mnBit rate mode : ConstantBit rate : 448 KbpsChannel(s) : 6 channelsChannel positions : Front: L C R, Side: L R, LFESampling rate : 48.0 KHzBit depth : 16 bitsCompression mode : LossyStream size : 281 MiB (9%)Title : AC3, 6 ch, 48 kHz, 448 kbps, Dubbing [BD CEE]Language : UkrainianDefault : NoForced : No
Audio #3ID : 4Format : AC-3Format/Info : Audio Coding 3Mode extension : CM (complete main)Codec ID : A_AC3Duration : 1h 27mnBit rate mode : ConstantBit rate : 448 KbpsChannel(s) : 6 channelsChannel positions : Front: L C R, Side: L R, LFESampling rate : 48.0 KHzBit depth : 16 bitsCompression mode : LossyStream size : 281 MiB (9%)Title : AC3, 6 ch, 48 kHz, 448 kbps, OriginalLanguage : EnglishDefault : NoForced : No
Text #1ID : 5Format : UTF-8Codec ID : S_TEXT/UTF8Codec ID/Info : UTF-8 Plain TextTitle : SRT, Full [BD CEE]Language : RussianDefault : NoForced : No
Text #2ID : 6Format : UTF-8Codec ID : S_TEXT/UTF8Codec ID/Info : UTF-8 Plain TextTitle : SRT, Full [BD CEE]Language : UkrainianDefault : NoForced : No
Text #3ID : 7Format : UTF-8Codec ID : S_TEXT/UTF8Codec ID/Info : UTF-8 Plain TextTitle : SRT, FullLanguage : EnglishDefault : NoForced : No
Menu00:00:00.000 : en:Chapter 100:03:24.037 : en:Chapter 200:05:07.224 : en:Chapter 300:09:33.406 : en:Chapter 400:13:08.705 : en:Chapter 500:15:55.329 : en:Chapter 600:18:22.643 : en:Chapter 700:22:23.717 : en:Chapter 800:25:56.555 : en:Chapter 900:29:17.965 : en:Chapter 1000:32:57.601 : en:Chapter 1100:36:14.381 : en:Chapter 1200:38:41.653 : en:Chapter 1300:43:48.709 : en:Chapter 1400:45:29.644 : en:Chapter 1500:49:38.976 : en:Chapter 1600:53:49.476 : en:Chapter 1700:57:22.856 : en:Chapter 1801:02:31.039 : en:Chapter 1901:08:08.334 : en:Chapter 2001:11:10.475 : en:Chapter 2101:13:14.640 : en:Chapter 2201:16:53.400 : en:Chapter 2301:19:23.634 : en:Chapter 24

Скриншоты

BDRip-AVC


Source Blu-Ray

Релиз от групп | and | -Данный релиз не будет воспроизводиться на бытовых плеерах не поддерживающих MKV и H.264Обсуждение релизов в AVC формате || Свежие AVC рипы || Заказ рипов в AVC-Приятного просмотра!Просьба к скачавшим: не уходите с раздачи!


Показать сообщения:    

Текущее время: 18-Дек 03:31

Часовой пояс: UTC ± 0


Вы не можете начинать темы
Вы не можете отвечать на сообщения
Вы не можете редактировать свои сообщения
Вы не можете удалять свои сообщения
Вы не можете голосовать в опросах
Вы не можете прикреплять файлы к сообщениям
Вы не можете скачивать файлы

!ВНИМАНИЕ!
Сайт не предоставляет электронные версии произведений, а занимается лишь коллекционированием и каталогизацией ссылок, присылаемых и публикуемых на форуме нашими читателями. Если вы являетесь правообладателем какого-либо представленного материала и не желаете, чтобы ссылка на него находилась в нашем каталоге, свяжитесь с нами, и мы незамедлительно удалим ее. Файлы для обмена на трекере предоставлены пользователями сайта, и администрация не несет ответственности за их содержание. Просьба не заливать файлы, защищенные авторскими правами, а также файлы нелегального содержания!