Ивановский Торрент трекер
Яндекс.Погода
 

[Цитировать]
HUNTER

Ледниковый период 4: Континентальный дрейф / Ice Age: Continental Drift- Страна: США
Жанр: мультфильм, комедия, приключения, семейный
Продолжительность: 01:27:45
Год выпуска: 2012
Перевод : Профессиональный (дублированный)
Русские субтитры: есть
-Режиссёры: Стив Мартино, Майк Тёрмайер / Steve Martino, Mike Thurmeier
Роли озвучивали: Рэй Романо, Джон Легуизамо, Куин Латифа, Дэнис Лири, Джош Пек, Питер Динклэйдж, Кеке Палмер, Дженнифер Лопез, Ник Фрост, Бен Глейб, Хезер Моррис, Шонн Уильям Скотт, Ванда Сайкес...
Роли дублировали: Степан Старчиков, Антон Комолов, Ольга Шелест, Александр Груздев, Илья Бледный, Иван Охлобыстин, Вероника Саркисова, Альбина Джанабаева, Александр Невский, Даниил Эльдаров, Полина Быстрицкая, Андрей Бархударов, Александра Назарова
- | Релиз: -Описание: После приключений под землей прошло семь лет. Случился дрейф континентов. Главные герои мультфильма, отделённые от стада, вынуждены использовать айсберг в качестве плота. Они пересекают океан и попадают в неизвестные им ранее земли с экзотическими животными и пиратами, враждебно настроенными к ним. Скрэту удаётся получить свой жёлудь, но он перемещается в новые для него земли.-Доп. информация:
  • Локализованный (русскоязычный) видеоряд.
  • Кодирование видео - xfiles.
  • Большое спасибо DFCbit за исходник, за дельные советы и всяческое содействие и поддержку.
-Семпл: скачать-Качество: BDRip 720p
Контейнер: MKV
Видео: 1280x534 (2.40:1), 23.976 fps, AVC, ~3776 Kbps, 0.224 bits/pixel
Аудио 1: Русский, 48.0 KHz, AC3, 6 ch, 640 kbps - Дубляж
Аудио 2: Українська, 48.0 KHz, AC3, 6 ch, 448 Kbps - Дубляж
Аудио 3: English, 48.0 KHz, AC3, 6 ch, 640 kbps - Original
Субтитры: Русские, Українські, English

MediaInfo

x264 log

x264 [info]: 1280x534p 1:1 @ 24000/1001 fps (cfr)x264 [info]: using SAR=1/1x264 [info]: using cpu capabilities: MMX2 SSE2Fast SSSE3 FastShuffle SSE4.2 AVXx264 [info]: profile High, level 4.1x264 [info]: cabac=1 ref=9 deblock=1:-2:-1 analyse=0x3:0x113 me=umh subme=11 psy=1 fade_compensate=0.00 psy_rd=0.60:0.00 mixed_ref=1 me_range=48 chroma_me=1 trellis=2 8x8dct=1 cqm=0 deadzone=21,11 fast_pskip=0 chroma_qp_offset=-2 threads=6 lookahead_threads=1 sliced_threads=0 nr=0 decimate=1 interlaced=0 bluray_compat=0 constrained_intra=0 bframes=10 b_pyramid=2 b_adapt=2 b_bias=0 direct=1 weightb=1 open_gop=0 weightp=2 keyint=250 keyint_min=23 scenecut=40 intra_refresh=0 rc=crf mbtree=0 crf=17.0000 qcomp=0.60 qpmin=0 qpmax=69 qpstep=4 ip_ratio=1.40 pb_ratio=1.30 aq=2:1.00x264 [info]: frame I:1178 Avg QP:15.55 size:116040x264 [info]: frame P:33596 Avg QP:16.94 size: 36374x264 [info]: frame B:91465 Avg QP:20.45 size: 12318x264 [info]: consecutive B-frames: 2.7% 7.6% 7.0% 56.1% 11.4% 11.6% 1.7% 1.1% 0.2% 0.2% 0.4%x264 [info]: mb I I16..4: 3.7% 73.3% 23.0%x264 [info]: mb P I16..4: 1.4% 17.5% 2.7% P16..4: 26.4% 28.5% 11.4% 0.0% 0.0% skip:12.0%x264 [info]: mb B I16..4: 0.3% 3.2% 0.4% B16..8: 27.5% 18.0% 3.2% direct: 4.8% skip:42.5% L0:34.3% L1:44.8% BI:20.9%x264 [info]: 8x8 transform intra:80.6% inter:61.0%x264 [info]: coded y,uvDC,uvAC intra: 86.8% 87.4% 63.9% inter: 21.8% 18.4% 4.6%x264 [info]: i16 v,h,dc,p: 9% 15% 6% 70%x264 [info]: i8 v,h,dc,ddl,ddr,vr,hd,vl,hu: 11% 12% 7% 9% 12% 11% 13% 11% 15%x264 [info]: i4 v,h,dc,ddl,ddr,vr,hd,vl,hu: 15% 12% 5% 7% 15% 12% 13% 9% 12%x264 [info]: i8c dc,h,v,p: 35% 28% 17% 20%x264 [info]: Weighted P-Frames: Y:7.7% UV:5.5%x264 [info]: ref P L0: 55.6% 10.8% 16.0% 5.3% 3.8% 2.9% 2.3% 1.5% 1.7% 0.2% 0.0%x264 [info]: ref B L0: 84.9% 7.4% 3.1% 1.4% 1.7% 0.7% 0.5% 0.2%x264 [info]: ref B L1: 95.6% 4.4%x264 [info]: kb/s:3776.27x264 [info]: encoded 126239 frames, 4.10 fps, 3776.27 kb/s, duration 8:32:46.45
GeneralUnique ID : 192607636425420416723646445069130805542 (0x90E6E1A6C4C21B22A87156EF57C43126)Complete name : Ice.Age.4.Continental.Drift.2012.BDRip720p.RUS.mkvFormat : MatroskaFormat version : Version 2File size : 3.38 GiBDuration : 1h 27mnOverall bit rate : 5 507 KbpsMovie name : Ice Age 4: Continental Drift (2012) BDRip 720pEncoded date : UTC 2012-11-01 19:02:54Writing application : mkvmerge v5.8.0 ('No Sleep / Pillow') built on Sep 2 2012 15:37:04Writing library : libebml v1.2.3 + libmatroska v1.3.0
VideoID : 1Format : AVCFormat/Info : Advanced Video CodecFormat profile : High@L4.1Format settings, CABAC : YesFormat settings, ReFrames : 9 framesCodec ID : V_MPEG4/ISO/AVCDuration : 1h 27mnBit rate : 3 669 KbpsWidth : 1 280 pixelsHeight : 534 pixelsDisplay aspect ratio : 2.40:1Frame rate mode : ConstantFrame rate : 23.976 fpsColor space : YUVChroma subsampling : 4:2:0Bit depth : 8 bitsScan type : ProgressiveBits/(Pixel*Frame) : 0.224Stream size : 2.25 GiB (67%)Title : BDRip 720p / xfiles / РГ Мультфильмы / rutracker.orgWriting library : x264 core 128 r2216kMod 198a7eaEncoding settings : cabac=1 / ref=9 / deblock=1:-2:-1 / analyse=0x3:0x113 / me=umh / subme=11 / psy=1 / fade_compensate=0.00 / psy_rd=0.60:0.00 / mixed_ref=1 / me_range=48 / chroma_me=1 / trellis=2 / 8x8dct=1 / cqm=0 / deadzone=21,11 / fast_pskip=0 / chroma_qp_offset=-2 / threads=6 / lookahead_threads=1 / sliced_threads=0 / nr=0 / decimate=1 / interlaced=0 / bluray_compat=0 / constrained_intra=0 / bframes=10 / b_pyramid=2 / b_adapt=2 / b_bias=0 / direct=1 / weightb=1 / open_gop=0 / weightp=2 / keyint=250 / keyint_min=23 / scenecut=40 / intra_refresh=0 / rc=crf / mbtree=0 / crf=17.0000 / qcomp=0.60 / qpmin=0 / qpmax=69 / qpstep=4 / ip_ratio=1.40 / pb_ratio=1.30 / aq=2:1.00Language : RussianDefault : NoForced : NoColor primaries : BT.709Transfer characteristics : BT.709Matrix coefficients : BT.709
Audio #1ID : 2Format : AC-3Format/Info : Audio Coding 3Mode extension : CM (complete main)Format settings, Endianness : BigCodec ID : A_AC3Duration : 1h 27mnBit rate mode : ConstantBit rate : 640 KbpsChannel(s) : 6 channelsChannel positions : Front: L C R, Side: L R, LFESampling rate : 48.0 KHzBit depth : 16 bitsCompression mode : LossyStream size : 402 MiB (12%)Title : ДубляжLanguage : RussianDefault : YesForced : No
Audio #2ID : 3Format : AC-3Format/Info : Audio Coding 3Mode extension : CM (complete main)Format settings, Endianness : BigCodec ID : A_AC3Duration : 1h 27mnBit rate mode : ConstantBit rate : 448 KbpsChannel(s) : 6 channelsChannel positions : Front: L C R, Side: L R, LFESampling rate : 48.0 KHzBit depth : 16 bitsCompression mode : LossyStream size : 281 MiB (8%)Title : ДубляжLanguage : UkrainianDefault : NoForced : No
Audio #3ID : 4Format : AC-3Format/Info : Audio Coding 3Mode extension : CM (complete main)Format settings, Endianness : BigCodec ID : A_AC3Duration : 1h 27mnBit rate mode : ConstantBit rate : 640 KbpsChannel(s) : 6 channelsChannel positions : Front: L C R, Side: L R, LFESampling rate : 48.0 KHzBit depth : 16 bitsCompression mode : LossyStream size : 402 MiB (12%)Title : OriginalLanguage : EnglishDefault : NoForced : No
Text #1ID : 5Format : UTF-8Codec ID : S_TEXT/UTF8Codec ID/Info : UTF-8 Plain TextLanguage : RussianDefault : NoForced : No
Text #2ID : 6Format : UTF-8Codec ID : S_TEXT/UTF8Codec ID/Info : UTF-8 Plain TextLanguage : UkrainianDefault : NoForced : No
Text #3ID : 7Format : UTF-8Codec ID : S_TEXT/UTF8Codec ID/Info : UTF-8 Plain TextLanguage : EnglishDefault : NoForced : No
Menu00:00:00.000 : en:00:00:00.00000:03:25.038 : en:00:03:25.03800:05:08.225 : en:00:05:08.22500:09:34.407 : en:00:09:34.40700:13:09.705 : en:00:13:09.70500:15:56.330 : en:00:15:56.33000:18:23.644 : en:00:18:23.64400:22:24.718 : en:00:22:24.71800:25:57.556 : en:00:25:57.55600:29:18.965 : en:00:29:18.96500:32:58.601 : en:00:32:58.60100:36:15.381 : en:00:36:15.38100:38:42.653 : en:00:38:42.65300:43:49.710 : en:00:43:49.71000:45:30.644 : en:00:45:30.64400:49:39.977 : en:00:49:39.97700:53:50.477 : en:00:53:50.47700:57:23.857 : en:00:57:23.85701:02:32.040 : en:01:02:32.04001:08:09.335 : en:01:08:09.33501:11:11.475 : en:01:11:11.47501:13:15.641 : en:01:13:15.64101:16:54.401 : en:01:16:54.40101:19:24.634 : en:01:19:24.634

Скриншоты

Source-
-Rip-
Показать сообщения:    

Текущее время: 22-Окт 00:10

Часовой пояс: UTC - 1


Вы не можете начинать темы
Вы не можете отвечать на сообщения
Вы не можете редактировать свои сообщения
Вы не можете удалять свои сообщения
Вы не можете голосовать в опросах
Вы не можете прикреплять файлы к сообщениям
Вы не можете скачивать файлы

!ВНИМАНИЕ!
Сайт не предоставляет электронные версии произведений, а занимается лишь коллекционированием и каталогизацией ссылок, присылаемых и публикуемых на форуме нашими читателями. Если вы являетесь правообладателем какого-либо представленного материала и не желаете, чтобы ссылка на него находилась в нашем каталоге, свяжитесь с нами, и мы незамедлительно удалим ее. Файлы для обмена на трекере предоставлены пользователями сайта, и администрация не несет ответственности за их содержание. Просьба не заливать файлы, защищенные авторскими правами, а также файлы нелегального содержания!