Ивановский Торрент трекер
Яндекс.Погода
 

[Цитировать]
HUNTER

Ледниковый период: Столкновение неизбежно / Ice Age: Collision Course
Страна: США
Жанр: Мультфильм, полнометражный, комедия, приключения
Продолжительность: 01:35:05
Год выпуска: 2016
Перевод: Профессиональный (дублированный) - iTunes
Cубтитры: Русские форсированные - (отдельно)
Режиссёр: Майк Тёрмайер, Гален Т. Чу / Mike Thurmeier, Galen T. Chu
Роли озвучивали: Рэй Романо, Джон Легуизамо, Дэнис Лири, Куин Латифа, Шонн Уильям Скотт, Саймон Пегг, Дженнифер Лопез, Нил Тайсон, Джесси Тайлер Фергюсон, Джесси Джей
Дубляж: Степан Старчиков, Антон Комолов, Александр Груздев, Ольга Шелест, Андрей Бархударов
Описание: Отчаянная погоня за неуловимым желудем катапультирует Скрата прямо в космос, где он случайно запускает целую серию космических событий. Именно они изменят весь мир Ледникового периода и станут реальной угрозой для него. Чтобы спастись, Сид, Мэнни, Диего и остальные звери должны покинуть свои дома, отправиться в забавное и захватывающее приключение в экзотические новые земли и встретиться со множеством красочных новых персонажей.
Релиз от группы MegaPeer
Семпл: http://multi-up.com/1120498
Качество: WEB-DLRip (Исх. Ice.Age.Collision.Course.2016.1080p.WEB-DL.Rus.Eng.HDCLUB)
Формат: AVI
Видео: 688x288 (2.39:1), 23.976 fps, XviD build 73 ~962 kbps avg, 0.20 bit/pixel
Аудио: 48 kHz, MPEG Layer 3, 2 ch, ~128.00 kbps avg

Подробные технические данные

ОбщееПолное имя : D:\Ice.Age.Collision.Course.2016.WEB-DLRip.745MB.MegaPeer\Ice.Age.Collision.Course.2016.WEB-DLRip.745MB.MegaPeer.aviФормат : AVIФормат/Информация : Audio Video InterleaveРазмер файла : 745 МбайтПродолжительность : 1 ч. 35 м.Общий поток : 1095 Кбит/сек
ВидеоИдентификатор : 0Формат : MPEG-4 VisualПрофиль формата : Advanced Simple@L5Параметр BVOP формата : 1Параметр QPel формата : НетПараметр GMC формата : Без точки переходаПараметр матрицы формата : ВыборочнаяИдентификатор кодека : XVIDИдентификатор кодека/Подсказка : XviDПродолжительность : 1 ч. 35 м.Битрейт : 962 Кбит/секШирина : 688 пикселейВысота : 288 пикселейСоотношение сторон : 2,40:1Частота кадров : 23,976 (24000/1001) кадра/секЦветовое пространство : YUVСубдискретизация насыщенности : 4:2:0Битовая глубина : 8 битТип развёртки : ПрогрессивнаяМетод сжатия : С потерямиБит/(Пиксели*Кадры) : 0.202Размер потока : 654 Мбайт (88%)Библиотека кодирования : XviD 73
АудиоИдентификатор : 1Формат : MPEG AudioВерсия формата : Version 1Профиль формата : Layer 3Режим : Joint stereoРасширение режима : MS StereoИдентификатор кодека : 55Идентификатор кодека/Подсказка : MP3Продолжительность : 1 ч. 34 м.Вид битрейта : ПостоянныйБитрейт : 128 Кбит/секКаналы : 2 каналаЧастота : 48,0 КГцМетод сжатия : С потерямиРазмер потока : 86,6 Мбайт (12%)Выравнивание : Соединение по промежуткамПродолжительность промежутка : 168 мс. (4,02 видеокадра)Время предзагрузки промежутка : 216 мс.Заголовок : iTunesБиблиотека кодирования : LAME3.99rНастройки программы : -m j -V 4 -q 2 -lowpass 17 -b 128

Скриншоты



Показать сообщения:    

Текущее время: 11-Дек 17:18

Часовой пояс: UTC ± 0


Вы не можете начинать темы
Вы не можете отвечать на сообщения
Вы не можете редактировать свои сообщения
Вы не можете удалять свои сообщения
Вы не можете голосовать в опросах
Вы не можете прикреплять файлы к сообщениям
Вы не можете скачивать файлы

!ВНИМАНИЕ!
Сайт не предоставляет электронные версии произведений, а занимается лишь коллекционированием и каталогизацией ссылок, присылаемых и публикуемых на форуме нашими читателями. Если вы являетесь правообладателем какого-либо представленного материала и не желаете, чтобы ссылка на него находилась в нашем каталоге, свяжитесь с нами, и мы незамедлительно удалим ее. Файлы для обмена на трекере предоставлены пользователями сайта, и администрация не несет ответственности за их содержание. Просьба не заливать файлы, защищенные авторскими правами, а также файлы нелегального содержания!