Ивановский Торрент трекер
Яндекс.Погода
 

[Цитировать]
HUNTER

Леденящий / Замороженный / Chiller
Страна: США
Жанр: фантастика, ужасы
Год выпуска: 1985
Продолжительность: 01:35:18
Перевод: Авторский (одноголосый закадровый) Алексеев
Cубтитры: нет
Оригинальная аудиодорожка: английский
Режиссер: Уэс Крэйвен / Wes Craven
В ролях: Майкл Бек, Беатрис Стрейт, Пол Сарвино, Джилл Шоллен
Описание: Десять лет спустя после своей смерти, Маилс, наследник руководителя солидной американской компании, возвращается к жизни. Объяснение этому простое: помещенный в состоянии анабиоза в цилиндр, где поддерживалась низкая температура, молодой человек смог использовать выгоды и достижения медицинского прогресса, неизвестные на момент его смерти. Маилс возвращается в семейный дом, который занимают его мать Марион, а также ее воспитанница Стейси. Маилс приступает к управлению компанией, где заправлял делами старый друг их семьи Бисон. Очень быстро по поведению Маилса становится очевидным, что влияние низких температур не прошло бесследно и оказало воздействие на личность «пациента». Холодно и безжалостно отклонены выгодные для бюджета компании заказы и жестоким образом спровоцирован сердечный приступ у лояльного Бисона. Воскресший быстро проявляет себя откровенно ненавистным не только по отношению к интересам своей приемной сестры, но и пытается убить преподобного отца Феликса Пенни, поверенного его матери. Чудом оставшийся в живых, пастор приходит к следующим заключениям: душа Маилса улетучилась в момент его смерти. Побывав под воздействием низких температур, возродилось только его тело, лишенное всего человеческого. Устав мучить несчастную Стейси, Маилс готовится убить свою мать крюком мясника. В последний момент матери удается запереться в комнате дома и застрелить сына из револьвера…
Кажется, все составляющие объединены, чтобы принести успех этому фильму. Если не брать в расчет собственный талант режиссера, оригинальную фантастическую тему: сохранение жизни при низких температурах, то можно посмотреть на очень крепкую игру актеров. Майкл Бек исполнил главные роли в картинах «Безумец» (1978), «Ксанаду» (1980), «Мегасила» (1982), «Повелители 21-го столетия» (1982), «Золотая печать» (1993). Беатрис Стрейт играла в фильмах «Телесеть» (1976), «Bloodline» (1979), «Полтергейст» (1982), «Обманутая» (1991). Однако зритель остается на голодном пайке. Может быть потому, что персонаж впадшего в спячку героя выведен без тонкостей и нюансов, а, может быть потому, что, в конечном счете, просто не веришь в эту историю. Картина снималась для телевидения. Грим сделал Стэн Уинстон.
Доп. информация: За синхронизацию русской дорожки огромное спасибо Нордер
При пересборе двд были использованы программы:
PgcDemux - разделение компонентов диска на файлы
Muxman - мультиплексирование и авторинг DVD
VobBlanker - реавторинг DVD

Скрин завершения проекта

Сэмпл: http://sendfile.su/1097830
Качество видео: VHSRip
Формат видео: DVD Video
Видео: NTSC 4:3 (720x480) VBR
Аудио: Russian (Dolby AC3, 192 Кбит/сек, 2 ch)
Аудио 2: English (Dolby AC3, 384 Кбит/сек, 2 ch)

DVDInfo

Size: 4.49 Gb ( 4 707 452 KBytes ) - DVD-9
Enabled regions: 1, 2, 3, 4, 5, 6
VTS_01 :
Play Length: 01:35:18
Video: NTSC 4:3 (720x480) VBR
Audio:
Russian (Dolby AC3, 2 ch)
English (Dolby AC3, 2 ch)
Menu Video:
NTSC 4:3 (720x480) VBR
Menu English Language Unit :
Chapter (PTT) Menu

MediaInfo

Общее
Полное имя : M:\Chiller_1985\VIDEO_TS\VTS_01_1.VOB
Формат : MPEG-PS
Размер файла : 1024 Мбайт
Продолжительность : 21 м.
Режим общего битрейта : Переменный
Общий поток : 6756 Кбит/сек
Видео
Идентификатор : 224 (0xE0)
Формат : MPEG Video
Версия формата : Version 2
Профиль формата : Main@Main
Параметр BVOP формата : Да
Параметр матрицы формата : По умолчанию
Параметр GOP формата : M=3, N=15
Продолжительность : 21 м.
Вид битрейта : Переменный
Битрейт : 6046 Кбит/сек
Максимальный битрейт : 8816 Кбит/сек
Ширина : 720 пикселей
Высота : 480 пикселей
Соотношение сторон : 4:3
Частота кадров : 29,970 кадров/сек
Стандарт вещания : NTSC
Цветовое пространство : YUV
Субдискретизация насыщенности : 4:2:0
Битовая глубина : 8 бит
Тип развёртки : Прогрессивная
Метод сжатия : С потерями
Бит/(Пиксели*Кадры) : 0.584
Размер потока : 916 Мбайт (89%)
Аудио #1
Идентификатор : 189 (0xBD)-128 (0x80)
Формат : AC-3
Формат/Информация : Audio Coding 3
Расширение режима : CM (complete main)
Параметр Endianness формата : Big
Режим смешивания : DVD-Video
Продолжительность : 21 м.
Вид битрейта : Постоянный
Битрейт : 192 Кбит/сек
Каналы : 2 канала
Расположение каналов : Front: L R
Частота : 48,0 КГц
Битовая глубина : 16 бит
Метод сжатия : С потерями
Размер потока : 29,1 Мбайт (3%)
Аудио #2
Идентификатор : 189 (0xBD)-129 (0x81)
Формат : AC-3
Формат/Информация : Audio Coding 3
Расширение режима : CM (complete main)
Параметр Endianness формата : Big
Режим смешивания : DVD-Video
Продолжительность : 21 м.
Вид битрейта : Постоянный
Битрейт : 384 Кбит/сек
Каналы : 2 канала
Расположение каналов : Front: L R
Частота : 48,0 КГц
Битовая глубина : 16 бит
Метод сжатия : С потерями
Размер потока : 58,2 Мбайт (6%)
Меню

Постеры и обложка

Скриншот c названием фильма

Показать сообщения:    

Текущее время: 19-Окт 08:15

Часовой пояс: UTC - 1


Вы не можете начинать темы
Вы не можете отвечать на сообщения
Вы не можете редактировать свои сообщения
Вы не можете удалять свои сообщения
Вы не можете голосовать в опросах
Вы не можете прикреплять файлы к сообщениям
Вы не можете скачивать файлы

!ВНИМАНИЕ!
Сайт не предоставляет электронные версии произведений, а занимается лишь коллекционированием и каталогизацией ссылок, присылаемых и публикуемых на форуме нашими читателями. Если вы являетесь правообладателем какого-либо представленного материала и не желаете, чтобы ссылка на него находилась в нашем каталоге, свяжитесь с нами, и мы незамедлительно удалим ее. Файлы для обмена на трекере предоставлены пользователями сайта, и администрация не несет ответственности за их содержание. Просьба не заливать файлы, защищенные авторскими правами, а также файлы нелегального содержания!