Ивановский Торрент трекер
Яндекс.Погода
 

[Цитировать]
HUNTER

Лего. Фильм / The Lego Movie- Год выпуска: 2014
Выпущено: Австралия, США, Дания
Жанр: мультфильм, фэнтези, комедия, приключения, семейный
Продолжительность: 01:40:35
Перевод: Профессиональный (полное дублирование) CEE
+ Оригинальная звуковая дорожка
Субтитры: Русские (полные, форсированные), английские (обычные, SDH, SDH-Colored), украинские (полные, форсированные) (внешние srt*)-Режиссер: Фил Лорд / Phil Lord, Кристофер Миллер / Christopher Miller
В ролях: Крис Прэтт, Уилл Феррелл, Элизабет Бэнкс, Уилл Арнетт, Лиам Нисон, Морган Фриман, Крэйг Берри, Элисон Бри, Дэвид Берроуз, Энтони Дэниелс, Чарли Дэй, Дэйв Франко, Джона Хилл, Шакил О’Нил, Ченнинг Татум
О фильме: Обычная лего-фигурка соглашается присоединиться к походу против злого лего-диктатора, планирующего склеить вместе всю вселенную…
Релиз:
Автор: yaroslaigor
Качество: BDRip (источник: / Blu-Ray CEE / 1080р)
Формат: AVI
Видео: 720x304 (2.37:1), 23.976 fps, XviD build 65 ~2204 kbps avg, 0.42 bit/pixel
Аудио #1: 48 kHz, AC3 Dolby Digital, 3/2 (L,C,R,l,r) + LFE ch, ~448.00 kbps avg rus
Аудио #2: 48 kHz, AC3 Dolby Digital, 3/2 (L,C,R,l,r) + LFE ch, ~448.00 kbps avg eng
Размер: 2235.85 Mb (1/2 DVD-R)
Скачать: Семпл-

Кадры из фильма
-
Mi

Формат : AVI
Формат/Информация : Audio Video Interleave
Профиль формата : OpenDML
Размер файла : 2,18 Гбайт
Продолжительность : 1 ч. 40 м.
Общий поток : 3108 Кбит/сек
Название фильма : Лего. Фильм / The Lego Movie (2014) BDRip
Режиссёр : yaroslaigor
Жанр : мультфильм, фэнтези, комедия
Программа кодирования : VirtualDubMod 1.5.10.2 (build 2542/release)
Примечание : 16.06.2014
Видео
Идентификатор : 0
Формат : MPEG-4 Visual
Профиль формата : Advanced Simple@L5
Параметр BVOP формата : 1
Параметр QPel формата : Нет
Параметр GMC формата : Без точки перехода
Параметр матрицы формата : Выборочная
Идентификатор кодека : XVID
Идентификатор кодека/Подсказка : XviD
Продолжительность : 1 ч. 40 м.
Битрейт : 2194 Кбит/сек
Ширина : 720 пикселей
Высота : 304 пикселя
Соотношение сторон : 2,35:1
Частота кадров : 23,976 кадра/сек
Цветовое пространство : YUV
Субдискретизация насыщенности : 4:2:0
Битовая глубина : 8 бит
Тип развёртки : Прогрессивная
Метод сжатия : С потерями
Бит/(Пиксели*Кадры) : 0.418
Размер потока : 1,54 Гбайт (71%)
Библиотека кодирования : XviD 65
Аудио #1
Идентификатор : 1
Формат : AC-3
Формат/Информация : Audio Coding 3
Расширение режима : CM (complete main)
Параметр Endianness формата : Big
Идентификатор кодека : 2000
Продолжительность : 1 ч. 40 м.
Вид битрейта : Постоянный
Битрейт : 448 Кбит/сек
Каналы : 6 каналов
Расположение каналов : Front: L C R, Side: L R, LFE
Частота : 48,0 КГц
Битовая глубина : 16 бит
Метод сжатия : С потерями
Размер потока : 322 Мбайт (14%)
Выравнивание : Разделение по промежуткам
Продолжительность промежутка : 42 мс. (1,00 видеокадр)
Время предзагрузки промежутка : 500 мс.
Аудио #2
Идентификатор : 2
Формат : AC-3
Формат/Информация : Audio Coding 3
Расширение режима : CM (complete main)
Параметр Endianness формата : Big
Идентификатор кодека : 2000
Продолжительность : 1 ч. 40 м.
Вид битрейта : Постоянный
Битрейт : 448 Кбит/сек
Каналы : 6 каналов
Расположение каналов : Front: L C R, Side: L R, LFE
Частота : 48,0 КГц
Битовая глубина : 16 бит
Метод сжатия : С потерями
Размер потока : 322 Мбайт (14%)
Выравнивание : Разделение по промежуткам
Продолжительность промежутка : 42 мс. (1,00 видеокадр)
Время предзагрузки промежутка : 500 мс.
-


Показать сообщения:    

Текущее время: 11-Дек 19:18

Часовой пояс: UTC ± 0


Вы не можете начинать темы
Вы не можете отвечать на сообщения
Вы не можете редактировать свои сообщения
Вы не можете удалять свои сообщения
Вы не можете голосовать в опросах
Вы не можете прикреплять файлы к сообщениям
Вы не можете скачивать файлы

!ВНИМАНИЕ!
Сайт не предоставляет электронные версии произведений, а занимается лишь коллекционированием и каталогизацией ссылок, присылаемых и публикуемых на форуме нашими читателями. Если вы являетесь правообладателем какого-либо представленного материала и не желаете, чтобы ссылка на него находилась в нашем каталоге, свяжитесь с нами, и мы незамедлительно удалим ее. Файлы для обмена на трекере предоставлены пользователями сайта, и администрация не несет ответственности за их содержание. Просьба не заливать файлы, защищенные авторскими правами, а также файлы нелегального содержания!