Важное объявление!
У Нас Все раздачи мультитрекерные, при нуле пиров в релизах, можете смело вставать на закачку!
Статистика раздачи
Размер:     |    Зарегистрирован:     |    Скачан:     |   
Нет
 
     
 
 
Автор Сообщение

HUNTER

Стаж:
5 лет
Сообщений:
68379

Репутация: 101

[+] [-]
Вне форума [Профиль] [ЛС]

Лего. Фильм / The Lego Movie
Страна: Австралия, США, Дания
Жанр: мультфильм, фэнтези, комедия, приключения
Продолжительность: 01:40:33
Год выпуска: 2014
Перевод: Профессиональный (дублированный) [iTunes]
Русские субтитры: нет
Режиссёр: Фил Лорд / Phil Lord, Кристофер Миллер / Christopher Miller
Роли озвучивали: Крис Прэтт, Уилл Феррелл, Элизабет Бэнкс, Уилл Арнетт, Лиам Нисон, Морган Фриман, Элисон Бри, Дэвид Берроуз, Энтони Дэниелс, Чарли Дэй
Описание: Обычная лего-фигурка соглашается присоединиться к походу против злого лего-диктатора, планирующего склеить вместе всю вселенную…
Семпл: http://multi-up.com/974883
Качество: WEB-DLRip
Формат: AVI
Видео: Xvid 720x304 23.98fps 1 553 Kbps
Аудио: Dolby AC3 48000Hz 6ch 384kbps
Субтитры: Отсутствуют
Подробные технические данные
Format : AVIFormat/Info : Audio Video InterleaveFile size : 1.37 GiBDuration : 1h 40mnOverall bit rate : 1 946 KbpsWriting application : VirtualDubMod 1.5.10.3 | www.virtualdub-fr.org || (build 2550/release)Writing library : VirtualDubMod build 2550/release
VideoID : 0Format : MPEG-4 VisualFormat profile : Advanced Simple@L5Format settings, BVOP : YesFormat settings, QPel : NoFormat settings, GMC : No warppointsFormat settings, Matrix : Default (H.263)Codec ID : XVIDCodec ID/Hint : XviDDuration : 1h 40mnBit rate : 1 553 KbpsWidth : 720 pixelsHeight : 304 pixelsDisplay aspect ratio : 2.35:1Frame rate : 23.976 fpsResolution : 8 bitsColorimetry : 4:2:0Scan type : ProgressiveBits/(Pixel*Frame) : 0.296Stream size : 1.09 GiB (80%)Writing library : XviD 1.2.1 (UTC 2008-12-04)
AudioID : 1Format : AC-3Format/Info : Audio Coding 3Codec ID : 2000Duration : 1h 40mnBit rate mode : ConstantBit rate : 384 KbpsChannel(s) : 6 channelsChannel positions : Front: L C R, Surround: L R, LFESampling rate : 48.0 KHzStream size : 276 MiB (20%)Alignment : Split accross interleavesInterleave, duration : 42 ms (1.00 video frame)Interleave, preload duration : 500 ms
Скриншоты

_________________
Показать сообщения:    

Текущее время: Сегодня 13:22

Часовой пояс: GMT



Вы не можете начинать темы
Вы не можете отвечать на сообщения
Вы не можете редактировать свои сообщения
Вы не можете удалять свои сообщения
Вы не можете голосовать в опросах
Вы не можете прикреплять файлы к сообщениям
Вы не можете скачивать файлы