Ивановский Торрент трекер
Яндекс.Погода
 

[Цитировать]
HUNTER

Лего. Фильм / The Lego Movie«Кто был никем, тот всем ещё покажет»- -Страна: Австралия, США, Дания
Жанр: мультфильм, фэнтези, комедия, приключения
Продолжительность: 01:40:35
Год выпуска: 2014
Перевод: Профессиональный (дублированный)
Русские субтитры: нет
-Режиссёр: Фил Лорд / Phil Lord, Кристофер Миллер / Christopher Miller
Роли озвучивали: Крис Прэтт, Уилл Феррелл, Элизабет Бэнкс, Уилл Арнетт, Лиам Нисон, Морган Фриман, Крэйг Берри, Элисон Бри, Дэвид Берроуз, Энтони Дэниелс, Чарли Дэй, Аманда Фаринос, Кит Фергюсон, Уилл Форте, Дэйв Франко, Тодд Хансен, Джона Хилл, Шакил О'Нил, Ник Офферман, Джэдон Сэнд, Коби Смолдерс, Мелисса Штурм, Лейки Вескиметс и др.
Роли дублировали: Константин Карасик, Александр Ревва, Алексей Колган, Ирина Киреева, Гоша Куценко, Владислав Копп, Василий Бочкарев, Мария Иващенко, Дмитрий Филимонов, Дмитрий Поляновский, Ян Розенберг, Сергей Чихачев, Данил Щебланов, Михаил Белякович, Гарик Харламов, Даня Бледный, Светлана Молодцова, Галина Корнева и др.
Описание: Обычная лего-фигурка соглашается присоединиться к походу против злого лего-диктатора, планирующего склеить вместе всю вселенную…
-
Доп. информация: Релиз от Scarabey
Семпл: http://multi-up.com/996796
-Качество: HDRip
Формат: AVI
Видео: 688x288 (2.39:1), 23.976 fps, XviD build 73 ~895 kbps avg, 0.19 bit/pixel
Аудио: 48 kHz, MPEG Layer 3, 2 ch, ~128.00 kbps avg
-

» Подробные технические данные

GeneralComplete name : D:\The Lego Movie_2014_HDRip_[scarabey].aviFormat : AVIFormat/Info : Audio Video InterleaveFile size : 743 MiBDuration : 1h 40mnOverall bit rate : 1 033 KbpsWriting application : VirtualDubMod 1.5.10.3 | www.virtualdub-fr.org || (build 2550/release)Writing library : VirtualDubMod build 2550/release
VideoID : 0Format : MPEG-4 VisualFormat profile : Advanced Simple@L5Format settings, BVOP : 1Format settings, QPel : NoFormat settings, GMC : No warppointsFormat settings, Matrix : CustomCodec ID : XVIDCodec ID/Hint : XviDDuration : 1h 40mnBit rate : 895 KbpsWidth : 688 pixelsHeight : 288 pixelsDisplay aspect ratio : 2.40:1Frame rate : 23.976 fpsColor space : YUVChroma subsampling : 4:2:0Bit depth : 8 bitsScan type : ProgressiveCompression mode : LossyBits/(Pixel*Frame) : 0.188Stream size : 644 MiB (87%)Writing library : XviD 73
AudioID : 1Format : MPEG AudioFormat version : Version 1Format profile : Layer 3Codec ID : 55Codec ID/Hint : MP3Duration : 1h 40mnBit rate mode : ConstantBit rate : 128 KbpsChannel count : 2 channelsSampling rate : 48.0 KHzCompression mode : LossyStream size : 92.1 MiB (12%)Alignment : Aligned on interleavesInterleave, duration : 42 ms (1.00 video frame)Interleave, preload duration : 504 ms
-
Показать сообщения:    

Текущее время: 22-Окт 07:18

Часовой пояс: UTC - 1


Вы не можете начинать темы
Вы не можете отвечать на сообщения
Вы не можете редактировать свои сообщения
Вы не можете удалять свои сообщения
Вы не можете голосовать в опросах
Вы не можете прикреплять файлы к сообщениям
Вы не можете скачивать файлы

!ВНИМАНИЕ!
Сайт не предоставляет электронные версии произведений, а занимается лишь коллекционированием и каталогизацией ссылок, присылаемых и публикуемых на форуме нашими читателями. Если вы являетесь правообладателем какого-либо представленного материала и не желаете, чтобы ссылка на него находилась в нашем каталоге, свяжитесь с нами, и мы незамедлительно удалим ее. Файлы для обмена на трекере предоставлены пользователями сайта, и администрация не несет ответственности за их содержание. Просьба не заливать файлы, защищенные авторскими правами, а также файлы нелегального содержания!