Ивановский Торрент трекер
Яндекс.Погода
 

[Цитировать]
HUNTER

LEGO супергерои DC: Лига справедливости против Лиги Бизарро / Lego DC Comics Super Heroes: Justice League vs. Bizarro League- Страна: США
Жанр: мультфильм, боевик, комедия, приключения
Год выпуска: 2015
Продолжительность: 00:48:42
Перевод: Любительский (Многоголосый закадровый) - RuDub TV
Русские субтитры: Нет-Режиссер: Брэндон Виетти / Brandon Vietti-Описание: Фантастический мультфильм, где роли главных персонажей играют фигурки мира Лего, расскажет о новой схватке Лиги Справедливости. Они будут противостоять Дарксайду. Этот злодей решил превратить планету Земля в куб. Но Дарксайд так же навредил миру, где проживала Лига Бизарро, в команде которой все герои, являются полной противоположностью Лиги Справедливости.-Рейтинг:
-Мировая премьера: 28 января 2015-Релиз: -Семпл.avi-Качество: BDRip [Lego DC Comics Super Heroes Justice League vs. Bizarro League.2015.BDRemux 1080p]
Формат: AVI
Видео: 720x400 (1.80:1), 23.976 fps, XviD build 65 ~1737 kbps avg, 0.25 bit/pixel
Аудио: 48 kHz, AC3 Dolby Digital, 3/2 (L,C,R,l,r) + LFE ch, ~384 kbps
Субтитры: Отсутствуют-

MI

General
Complete name : C:\Users\Ya\Desktop\Lego DC Comics Super Heroes Justice League vs. Bizarro League.avi
Format : AVI
Format/Info : Audio Video Interleave
File size : 743 MiB
Duration : 48mn 42s
Overall bit rate : 2 131 Kbps
Writing application : VirtualDubMod 1.5.10.3 | www.virtualdub-fr.org || (build 2550/release)
Writing library : VirtualDubMod build 2550/release
Video
ID : 0
Format : MPEG-4 Visual
Format profile : Advanced Simple@L5
Format settings, BVOP : 2
Format settings, QPel : No
Format settings, GMC : No warppoints
Format settings, Matrix : Custom
Codec ID : XVID
Codec ID/Hint : XviD
Duration : 48mn 42s
Bit rate : 1 738 Kbps
Width : 720 pixels
Height : 400 pixels
Display aspect ratio : 16:9
Frame rate : 23.976 fps
Color space : YUV
Chroma subsampling : 4:2:0
Bit depth : 8 bits
Scan type : Progressive
Compression mode : Lossy
Bits/(Pixel*Frame) : 0.252
Stream size : 606 MiB (82%)
Writing library : XviD 65
Audio
ID : 1
Format : AC-3
Format/Info : Audio Coding 3
Mode extension : CM (complete main)
Codec ID : 2000
Duration : 48mn 42s
Bit rate mode : Constant
Bit rate : 384 Kbps
Channel(s) : 6 channels
Channel positions : Front: L C R, Side: L R, LFE
Sampling rate : 48.0 KHz
Bit depth : 16 bits
Compression mode : Lossy
Stream size : 134 MiB (18%)
Alignment : Split accross interleaves
Interleave, duration : 42 ms (1.00 video frame)
Interleave, preload duration : 500 ms
Все раздачи мультфильма!
Показать сообщения:    

Текущее время: 25-Сен 21:27

Часовой пояс: UTC - 1


Вы не можете начинать темы
Вы не можете отвечать на сообщения
Вы не можете редактировать свои сообщения
Вы не можете удалять свои сообщения
Вы не можете голосовать в опросах
Вы не можете прикреплять файлы к сообщениям
Вы не можете скачивать файлы

!ВНИМАНИЕ!
Сайт не предоставляет электронные версии произведений, а занимается лишь коллекционированием и каталогизацией ссылок, присылаемых и публикуемых на форуме нашими читателями. Если вы являетесь правообладателем какого-либо представленного материала и не желаете, чтобы ссылка на него находилась в нашем каталоге, свяжитесь с нами, и мы незамедлительно удалим ее. Файлы для обмена на трекере предоставлены пользователями сайта, и администрация не несет ответственности за их содержание. Просьба не заливать файлы, защищенные авторскими правами, а также файлы нелегального содержания!