Важное объявление!
У Нас Все раздачи мультитрекерные, при нуле пиров в релизах, можете смело вставать на закачку!
 
Автор Сообщение

HUNTER

Стаж:
4 года 11 месяцев
Сообщений:
66009

Репутация: 101

[+] [-]
Вне форума [Профиль] [ЛС]

LEGO Супергерои DC Comics – Лига Справедливости: Атака Легиона Гибели
LEGO DC Super Heroes: Justice League - Attack of the Legion of Doom!
-
Год выпуска: 2015
Страна: США
Жанр: мультфильм, боевик, комедия, приключения
Продолжительность: 01:17:02
Перевод: Профессиональный (Многоголосый закадровый)
русские субтитры: нет-Режиссёр: Рик Моралес : Rick Morales-Роли озвучивали: Ди Брэдли Бейкер, Трой Бэйкер, Джон Ди Маджио, Грэй Гриффин, Марк Хэмилл, Том Кенни, Нолан Норт, Джошуа Китон, Хари Пэйтон, Кевин Майкл Ричардсон-ОписаниеС того момента, как была создана Лига Справедливости, держащая Метрополис в безопасности, преступники все время в бегах, и это огорчает злого гения Лекса Лютора. Вместе с Черной Мантой, Синестро и другими безжалостными союзниками Лекс создает свою команду и называет ее Легион Гибели. Неужели вместе с суперсильной злодейской командой и планом атаки на сверхсекретную правительственную базу, Зону 52, Лекс находится на грани победы? Врубайте тревогу и приготовьтесь, потому что кубики полетят во все стороны, когда Супермен, Бэтмен Чудо-Женщина и остальные участники Лиги Справедливости сразятся лицом к лицу с величайшими суперзлодеями!- релиз: -Качество: BDRip 720p [url=viewtopic.php?t=5191584]BDRemux 1080p[/url] -Azureus-
Формат: MKV
Видео кодек: AVC
Аудио кодек: AC3
Видео: AVC 3207 Kbps 1280 x 720 (1.778) 23.976 fps
Аудио #1: [RUS] 48 kHz, AC3 Dolby Digital, 2/0 (L,R) ch, ~192 kbps
Аудио #2: [ENG] AC-3 640 Kbps 6 channels, 48.0 KHz
субтитры: английские
навигация по главам: 9 глав (не именных)

MediaInfo | Log

Log
x264 [info]: frame I:914 Avg QP:11.49 size:123791
x264 [info]: frame P:33110 Avg QP:13.72 size: 32550
x264 [info]: frame B:76784 Avg QP:17.12 size: 9216
x264 [info]: consecutive B-frames: 6.6% 8.4% 9.3% 49.0% 10.2% 10.2% 2.1% 2.9% 0.4% 0.5% 0.4%
x264 [info]: mb I I16..4: 12.7% 61.0% 26.3%
x264 [info]: mb P I16..4: 2.3% 12.6% 2.7% P16..4: 22.1% 24.9% 9.6% 2.2% 0.3% skip:23.3%
x264 [info]: mb B I16..4: 0.4% 1.5% 0.2% B16..8: 24.8% 14.6% 2.5% direct: 3.7% skip:52.2% L0:40.0% L1:46.8% BI:13.2%
x264 [info]: 8x8 transform intra:70.4% inter:52.1%
x264 [info]: direct mvs spatial:100.0% temporal:0.0%
x264 [info]: coded y,uvDC,uvAC intra: 74.3% 85.7% 72.9% inter: 12.3% 16.8% 8.2%
x264 [info]: i16 v,h,dc,p: 17% 14% 5% 64%
x264 [info]: i8 v,h,dc,ddl,ddr,vr,hd,vl,hu: 12% 16% 11% 8% 9% 9% 11% 10% 13%
x264 [info]: i4 v,h,dc,ddl,ddr,vr,hd,vl,hu: 13% 16% 11% 7% 13% 10% 12% 8% 10%
x264 [info]: i8c dc,h,v,p: 32% 30% 18% 21%
x264 [info]: Weighted P-Frames: Y:2.5% UV:2.2%
x264 [info]: ref P L0: 61.3% 6.5% 14.2% 5.1% 3.6% 3.0% 2.4% 1.7% 1.7% 0.4% 0.0%
x264 [info]: ref B L0: 80.7% 9.3% 3.9% 2.1% 1.6% 1.2% 0.8% 0.4%
x264 [info]: ref B L1: 94.4% 5.6%
x264 [info]: kb/s:3286.30
x264 [total]: encoded 110808 frames, 7.66 fps, 3286.30 kb/s, duration 4:01:03.56
Format : Matroska
Format version : Version 4 / Version 2
File size : 2.22 GiB
Duration : 1h 17mn
Overall bit rate : 4 121 Kbps
Encoded date : UTC 2016-04-04 07:14:11
Writing application : mkvmerge v6.7.0 ('Back to the Ground') 32bit built on Jan 8 2014 15:03:17
Writing library : libebml v1.3.0 + libmatroska v1.4.1
Video
ID : 1
Format : AVC
Format/Info : Advanced Video Codec
Format profile : High@L4.1
Format settings, CABAC : Yes
Format settings, ReFrames : 9 frames
Codec ID : V_MPEG4/ISO/AVC
Duration : 1h 17mn
Bit rate : 3 207 Kbps
Width : 1 280 pixels
Height : 720 pixels
Display aspect ratio : 16:9
Frame rate mode : Constant
Frame rate : 23.976 (24000/1001) fps
Color space : YUV
Chroma subsampling : 4:2:0
Bit depth : 8 bits
Scan type : Progressive
Bits/(Pixel*Frame) : 0.145
Stream size : 1.73 GiB (78%)
Title : LEGO DC Super Heroes: Justice League - Attack of the Legion of Doom! (2015) [rutracker.org]
Writing library : x264 core 148 r2638kMod 7599210
Encoding settings : cabac=1 / ref=9 / deblock=1:-3:-2 / analyse=0x3:0x133 / me=umh / subme=11 / psy=1 / fade_compensate=0.00 / psy_rd=1.00:0.05 / mixed_ref=1 / me_range=48 / chroma_me=1 / trellis=2 / 8x8dct=1 / cqm=0 / deadzone=21,11 / fast_pskip=0 / chroma_qp_offset=-3 / threads=12 / lookahead_threads=3 / sliced_threads=0 / nr=0 / decimate=1 / interlaced=0 / bluray_compat=0 / constrained_intra=0 / fgo=0 / bframes=10 / b_pyramid=2 / b_adapt=2 / b_bias=0 / direct=3 / weightb=1 / open_gop=0 / weightp=2 / keyint=250 / keyint_min=23 / scenecut=40 / intra_refresh=0 / rc_lookahead=60 / rc=crf / mbtree=0 / crf=17.1000 / qcomp=0.60 / qpmin=0 / qpmax=69 / qpstep=4 / vbv_maxrate=50000 / vbv_bufsize=62500 / crf_max=0.0 / nal_hrd=none / filler=0 / ip_ratio=1.40 / pb_ratio=1.30 / aq=3:0.90
Language : English
Default : Yes
Forced : No
Audio #1
ID : 2
Format : AC-3
Format/Info : Audio Coding 3
Mode extension : CM (complete main)
Format settings, Endianness : Big
Codec ID : A_AC3
Duration : 1h 17mn
Bit rate mode : Constant
Bit rate : 192 Kbps
Channel(s) : 2 channels
Channel positions : Front: L R
Sampling rate : 48.0 KHz
Frame rate : 31.250 fps (1536 spf)
Compression mode : Lossy
Stream size : 106 MiB (5%)
Title : MVO
Language : Russian
Default : Yes
Forced : No
Audio #2
ID : 3
Format : AC-3
Format/Info : Audio Coding 3
Mode extension : CM (complete main)
Format settings, Endianness : Big
Codec ID : A_AC3
Duration : 1h 17mn
Bit rate mode : Constant
Bit rate : 640 Kbps
Channel(s) : 6 channels
Channel positions : Front: L C R, Side: L R, LFE
Sampling rate : 48.0 KHz
Frame rate : 31.250 fps (1536 spf)
Compression mode : Lossy
Stream size : 353 MiB (16%)
Title : Original
Language : English
Default : No
Forced : No
Text #1
ID : 4
Format : UTF-8
Codec ID : S_TEXT/UTF8
Codec ID/Info : UTF-8 Plain Text
Title : Full
Language : English
Default : No
Forced : No
Text #2
ID : 5
Format : UTF-8
Codec ID : S_TEXT/UTF8
Codec ID/Info : UTF-8 Plain Text
Title : SDH
Language : English
Default : No
Forced : No
Menu
00:00:00.000 : en:00:00:00.000
00:11:16.342 : en:00:11:16.342
00:18:48.919 : en:00:18:48.919
00:29:12.125 : en:00:29:12.125
00:37:33.084 : en:00:37:33.084
00:50:00.456 : en:00:50:00.456
00:59:02.956 : en:00:59:02.956
01:09:21.115 : en:01:09:21.115
01:14:02.938 : en:01:14:02.938

Скриншоты




_________________
Показать сообщения:    

Текущее время: Сегодня 12:15

Часовой пояс: GMT



Вы не можете начинать темы
Вы не можете отвечать на сообщения
Вы не можете редактировать свои сообщения
Вы не можете удалять свои сообщения
Вы не можете голосовать в опросах
Вы не можете прикреплять файлы к сообщениям
Вы не можете скачивать файлы