Ивановский Торрент трекер
Яндекс.Погода
 

[Цитировать]
HUNTER

Лего: Приключения Клатча Пауэрса / Lego: The Adventures of Clutch Powers- Страна: США
Жанр: мультфильм, приключения, семейный
Год выпуска: 2010
Продолжительность: 01:21:37
Перевод: Профессиональный (полное дублирование)
Субтитры: Есть-Режиссер: Ховард Э. Бэйкер / Howard E. Baker-Роли озвучивали: Райан МакПартлин (Clutch Powers, озвучка), Ивонн Страховски (Peg Mooring, озвучка), Пол Майкл Глейзер (Kjeld Playwell, озвучка), Роджер Роуз (Brick Masterson, озвучка), Джефф Беннетт (Bernie von Beam, Artie Fol, озвучка), Грегг Бергер (Watch Commander, Rock Powers, озвучка), Стефан Кокс (Mallock the Malign, озвучка), Алекс Десерт (Skelly, озвучка), Крис Хардвик (Bones, озвучка), Крис Эмерсон (Prince Varen, озвучка), Ричард Дойл (Hogar the Troll, озвучка), Джон Ди Кроста (Lofar the Dwarf, озвучка)-Роли дублировали: Алексей Мясников (Clutch Powers), Наталья Грачева (Peg Mooring), Владимир Герасимов (Kjeld Playwell), Александр Новиков (Brick Masterson), Михаил Тихонов (Bernie von Beam)-Описание: Познакомьтесь с Клатчем Пауэрсом, лучшим строителем и исследователем во Вселенной LEGO, выполняющим самую опасную миссию в жизни. Удивительные приключения приводят Клатча и его команду экспертов LEGO из Города LEGO на планету-тюрьму Космической Полиции, где они переносятся в средневековый мир Ашлар.
Они должны помочь законному наследнику королевского трона найти мужество отвоевать свое королевство у злого волшебника Мэллока Малина. Способности героев к конструированию подвергнутся серьезному испытанию в битве с армией скелетов Мэллока.
-Рейтинг:
-Мировая премьера: 4 марта 2010
Релиз на DVD: 10 марта 2010, «Юниверсал Пикчерс Рус»-Релиз: -Семпл-Качество: WEB-DLRip
Формат: AVI
Видео: 720x400 (1.80:1), 23.976 fps, XviD build 65 ~1970 kbps avg, 0.28 bit/pixel
Аудио: Русский: 48 kHz, AC3 Dolby Digital, 3/2 (L,C,R,l,r) + LFE ch, ~384 kbps
Аудио 2: English: 48 kHz, AC3 Dolby Digital, 2/0 (L,R) ch, ~192 kbps
Субтитры: Русские (Forced), English (SDH)
-

MI

Format : AVIFormat/Info : Audio Video InterleaveFile size : 1.46 GiBDuration : 1h 21mnOverall bit rate : 2 561 KbpsWriting application : VirtualDubMod 1.5.10.3 | www.virtualdub-fr.org || (build 2550/release)Writing library : VirtualDubMod build 2550/release
VideoID : 0Format : MPEG-4 VisualFormat profile : Advanced Simple@L5Format settings, BVOP : 2Format settings, QPel : NoFormat settings, GMC : No warppointsFormat settings, Matrix : CustomCodec ID : XVIDCodec ID/Hint : XviDDuration : 1h 21mnBit rate : 1 971 KbpsWidth : 720 pixelsHeight : 400 pixelsDisplay aspect ratio : 16:9Frame rate : 23.976 fpsColor space : YUVChroma subsampling : 4:2:0Bit depth : 8 bitsScan type : ProgressiveCompression mode : LossyBits/(Pixel*Frame) : 0.285Stream size : 1.12 GiB (77%)Writing library : XviD 65
Audio #1ID : 1Format : AC-3Format/Info : Audio Coding 3Mode extension : CM (complete main)Format settings, Endianness : BigCodec ID : 2000Duration : 1h 21mnBit rate mode : ConstantBit rate : 384 KbpsChannel(s) : 6 channelsChannel positions : Front: L C R, Side: L R, LFESampling rate : 48.0 KHzBit depth : 16 bitsCompression mode : LossyStream size : 224 MiB (15%)Alignment : Split accross interleavesInterleave, duration : 42 ms (1.00 video frame)Interleave, preload duration : 500 ms
Audio #2ID : 2Format : AC-3Format/Info : Audio Coding 3Mode extension : CM (complete main)Format settings, Endianness : BigCodec ID : 2000Duration : 1h 21mnBit rate mode : ConstantBit rate : 192 KbpsChannel(s) : 2 channelsChannel positions : Front: L RSampling rate : 48.0 KHzBit depth : 16 bitsCompression mode : LossyStream size : 112 MiB (7%)Alignment : Split accross interleavesInterleave, duration : 42 ms (1.00 video frame)Interleave, preload duration : 500 ms
Все раздачи мультфильма!


Показать сообщения:    

Текущее время: 16-Дек 18:48

Часовой пояс: UTC ± 0


Вы не можете начинать темы
Вы не можете отвечать на сообщения
Вы не можете редактировать свои сообщения
Вы не можете удалять свои сообщения
Вы не можете голосовать в опросах
Вы не можете прикреплять файлы к сообщениям
Вы не можете скачивать файлы

!ВНИМАНИЕ!
Сайт не предоставляет электронные версии произведений, а занимается лишь коллекционированием и каталогизацией ссылок, присылаемых и публикуемых на форуме нашими читателями. Если вы являетесь правообладателем какого-либо представленного материала и не желаете, чтобы ссылка на него находилась в нашем каталоге, свяжитесь с нами, и мы незамедлительно удалим ее. Файлы для обмена на трекере предоставлены пользователями сайта, и администрация не несет ответственности за их содержание. Просьба не заливать файлы, защищенные авторскими правами, а также файлы нелегального содержания!