Важное объявление!
У Нас Все раздачи мультитрекерные, при нуле пиров в релизах, можете смело вставать на закачку!
 
Автор Сообщение

HUNTER

Стаж:
4 года 9 месяцев
Сообщений:
65047

Репутация: 101

[+] [-]
Вне форума [Профиль] [ЛС]

Легенда о снеговике Фрости / Приключения Снеговика Фрости / Legend of Frosty the Snowman
Страна: США
Жанр: мультфильм
Продолжительность: 01:19:27
Год выпуска: 2004
Перевод 1: Профессиональный (дублированный) Карусель
Перевод 2: Профессиональный (двухголосый закадровый)
Русские субтитры: нет
Режиссёр: Грэг Салливан / Greg Sullivan
Описание: В вечно зеленом городе никогда не было настоящей зимы - с весельем, с играми в снежки и с катанием с горок. Мэр города господин Тинкертон поддерживал "железную" дисциплину и запрещал какие-либо разговоры о волшебстве, Рождестве и прочей ерунде. Но сыновья Тинкертона Чарли и Томми познакомились сами и хотят познакомить всех жителей города с веселым снеговиком Фрости. Этот снежный человек всех закружит в веселом хороводе и подарит удивительный зимний праздник - Рождество!
Качество: DVDRip
Формат: AVI
Видео: MPEG4, XviD, 704x384 (16/9), 25.000 fps, 2 073 Kbps (0.307 bit/pixel)
Аудио 1: AC-3, 48.0 KHz, 2 ch, 192 Kbps, CBR - дубляж
Аудио 2: AC-3, 48.0 KHz, 2 ch, 192 Kbps, CBR - многоголосый
Субтитры: нет

Подробные технические данные

ОбщееПолное имя : K:\Легенда о снеговике Фрости.aviФормат : AVIФормат/Информация : Audio Video InterleaveРазмер файла : 1,37 ГбайтПродолжительность : 1 ч. 19 м.Общий поток : 2472 Кбит/секНазвание фильма : Легенда о снеговике Фрости / Приключения Снеговика Фрости / Legend of Frosty the Snowman (2004)Режиссёр : miha2154Программа кодирования : VirtualDubMod 1.5.10.2 (build 2540/release)Библиотека кодирования : VirtualDubMod build 2540/releaseПравообладатель : специально для BitTorrent трекер RuTracker.org (ex torrents.ru)
ВидеоИдентификатор : 0Формат : MPEG-4 VisualПрофиль формата : Advanced Simple@L5Параметр BVOP формата : 2Параметр QPel формата : НетПараметр GMC формата : Без точки переходаПараметр матрицы формата : Default (MPEG)Идентификатор кодека : XVIDИдентификатор кодека/Подсказка : XviDПродолжительность : 1 ч. 19 м.Битрейт : 2073 Кбит/секШирина : 704 пикселяВысота : 384 пикселяСоотношение сторон : 1,85:1Частота кадров : 25,000 кадров/секЦветовое пространство : YUVСубдискретизация насыщенности : 4:2:0Битовая глубина : 8 битТип развёртки : ПрогрессивнаяМетод сжатия : С потерямиБит/(Пиксели*Кадры) : 0.307Размер потока : 1,15 Гбайт (84%)Библиотека кодирования : XviD 1.1.0 (UTC 2005-11-22)
Аудио #1Идентификатор : 1Формат : AC-3Формат/Информация : Audio Coding 3Расширение режима : CM (complete main)Параметр Endianness формата : BigИдентификатор кодека : 2000Продолжительность : 1 ч. 19 м.Вид битрейта : ПостоянныйБитрейт : 192 Кбит/секКаналы : 2 каналаРасположение каналов : Front: L RЧастота : 48,0 КГцБитовая глубина : 16 битМетод сжатия : С потерямиРазмер потока : 109 Мбайт (8%)Выравнивание : Разделение по промежуткамПродолжительность промежутка : 40 мс. (1,00 видеокадр)Время предзагрузки промежутка : 500 мс.Заголовок : Профессиональный (полное дублирование) Карусель
Аудио #2Идентификатор : 2Формат : AC-3Формат/Информация : Audio Coding 3Расширение режима : CM (complete main)Параметр Endianness формата : BigИдентификатор кодека : 2000Продолжительность : 1 ч. 19 м.Вид битрейта : ПостоянныйБитрейт : 192 Кбит/секКаналы : 2 каналаРасположение каналов : Front: L RЧастота : 48,0 КГцБитовая глубина : 16 битМетод сжатия : С потерямиРазмер потока : 109 Мбайт (8%)Выравнивание : Разделение по промежуткамПродолжительность промежутка : 40 мс. (1,00 видеокадр)Время предзагрузки промежутка : 500 мс.Заголовок : Профессиональный (двухголосый, закадровый)

Скриншоты



_________________
Показать сообщения:    

Текущее время: Сегодня 12:43

Часовой пояс: GMT



Вы не можете начинать темы
Вы не можете отвечать на сообщения
Вы не можете редактировать свои сообщения
Вы не можете удалять свои сообщения
Вы не можете голосовать в опросах
Вы не можете прикреплять файлы к сообщениям
Вы не можете скачивать файлы