Ивановский Торрент трекер
Яндекс.Погода
 

[Цитировать]
димитри37

Легенда для оперши
Год выпуска: 2013
Производство: «Триикс Медиа»
Жанр: Драма, криминал
Продолжительность: ~ 00:45:00 серия
Субтитры: отсутствуют
Режиссёр: Игорь Копылов
В ролях: Елена Радевич, Павел Баршак, Алексей Горбунов, Антон Багмет, Валерий Чебурканов, Никита Рогов, Елизавета Турская
Описание: Александра Мелихова – молодая сотрудница полиции, работающая в «разбойном отделе». Она готовится к свадьбе, но за несколько дней до этого события у Александры убивают отца - полковника Мелихова, возглавлявшего уголовный розыск. Мелихов убит из своего же собственного пистолета, однако оружие убийца унес с собой. В это же время в город приезжает банда, которая намерена ограбить несколько ювелирных магазинов. Пистолет полковника Мелихова оказывается у них, а тем временем следствие считает, что отец Александры был связан с криминалом, и его убил кто-то из подельников. Александра не верит в это – она внедряется в банду, познакомившись с водителем Андреем и представившись ему сотрудницей крупного ювелирного магазина. Александре удается установить, что банда непричастна к убийству ее отца. Между Александрой и Андреем вспыхивают чувства. Оказывается, Андрей – известный в прошлом гонщик, участвовавший во многих международных соревнованиях. Но в какой-то момент жизнь Андрея изменилась – во время гонок он попал в аварию и теперь вынужден покупать очень дорогие лекарства. Начальник «разбойного» отдела подполковник Метелин готовит операцию – банду планируется взять в том самом магазине, в котором якобы работает Александра. Но в момент операции все идет не так, как планировалось. Однако, именно это и помогает Александре вычислить настоящего убийцу ее отца.
Качество: SATRip
Формат: AVI
Видео кодек: XviD
Аудио кодек: MP3
Видео: 720x400 (16:9), 25 fps, XviD build 50 ~1600 kbps avg, 0.223 bit/pixel
Аудио: 48 kHz, MPEG Layer 3, 2 ch, ~128.00 kbps avg
Рип:
Реклама отсутствует

Внимание! Раздача ведётся путём добавления новых серий!

Внимание! Раздача ведётся путём добавления новых серий; при каждом добавлении создётся новый торрент.
Чтобы начать докачку новой серии, пользователям необходимо сделать следующее:
1) остановить скачивание
2) удалить старый торрент у себя из клиента (старые серии удалять не надо)
3) скачать новый торрент и запустить его у себя в клиенте вместо старого, при этом указать клиенту путь в старую папку куда и должно происходить скачивание новых серий.
Ваш клиент при этом должен произвести хеширование (проверку) старой папки (если не производит сам - помогите ему сделать это), и будет докачивать только те серии которых у вас ещё нет. Старые серии при этом не удаляются, а продолжают раздаваться!
Eсли вы уже удалили старые серии, то предотвратить повторную закачку старых серий можно, отжав галочку в соответствовавших местах при запуске нового торрента.

MI

General
Complete name : Legenda.dlya.opershi.2013.SATRip\Legenda.dlya.opershi.2013.SATRip_1.seriya.avi
Format : AVI
Format/Info : Audio Video Interleave
File size : 551 MiB
Duration : 45mn 13s
Overall bit rate : 1 705 Kbps
Writing application : VirtualDubMod 1.5.10.2 (build 2540/release)
Writing library : VirtualDubMod build 2540/release
Video
ID : 0
Format : MPEG-4 Visual
Format profile : Advanced Simple@L5
Format settings, BVOP : 1
Format settings, QPel : No
Format settings, GMC : No warppoints
Format settings, Matrix : Custom
Codec ID : XVID
Codec ID/Hint : XviD
Duration : 45mn 13s
Bit rate : 1 567 Kbps
Width : 720 pixels
Height : 400 pixels
Display aspect ratio : 16:9
Frame rate : 25.000 fps
Color space : YUV
Chroma subsampling : 4:2:0
Bit depth : 8 bits
Scan type : Progressive
Compression mode : Lossy
Bits/(Pixel*Frame) : 0.218
Stream size : 507 MiB (92%)
Writing library : XviD 1.2.1 (UTC 2008-12-04)
Audio
ID : 1
Format : MPEG Audio
Format version : Version 1
Format profile : Layer 3
Mode : Joint stereo
Codec ID : 55
Codec ID/Hint : MP3
Duration : 45mn 13s
Bit rate mode : Constant
Bit rate : 128 Kbps
Channel(s) : 2 channels
Sampling rate : 48.0 KHz
Compression mode : Lossy
Stream size : 41.4 MiB (8%)
Alignment : Aligned on interleaves
Interleave, duration : 40 ms (1.00 video frame)
Interleave, preload duration : 504 ms
Writing library : LAME3.98r
Encoding settings : -m j -V 4 -q 2 -lowpass 17 -b 128

Скриншоты



Показать сообщения:    

Текущее время: 16-Дек 09:26

Часовой пояс: UTC ± 0


Вы не можете начинать темы
Вы не можете отвечать на сообщения
Вы не можете редактировать свои сообщения
Вы не можете удалять свои сообщения
Вы не можете голосовать в опросах
Вы не можете прикреплять файлы к сообщениям
Вы не можете скачивать файлы

!ВНИМАНИЕ!
Сайт не предоставляет электронные версии произведений, а занимается лишь коллекционированием и каталогизацией ссылок, присылаемых и публикуемых на форуме нашими читателями. Если вы являетесь правообладателем какого-либо представленного материала и не желаете, чтобы ссылка на него находилась в нашем каталоге, свяжитесь с нами, и мы незамедлительно удалим ее. Файлы для обмена на трекере предоставлены пользователями сайта, и администрация не несет ответственности за их содержание. Просьба не заливать файлы, защищенные авторскими правами, а также файлы нелегального содержания!