Важное объявление!
У Нас Все раздачи мультитрекерные, при нуле пиров в релизах, можете смело вставать на закачку!
Статистика раздачи
Размер:     |    Зарегистрирован:     |    Скачан:     |   
Нет
 
     
 
 
Автор Сообщение

HUNTER

Стаж:
5 лет
Сообщений:
68401

Репутация: 101

[+] [-]
Вне форума [Профиль] [ЛС]

Левша / Southpaw
Страна: США
Жанр: драма, спорт, боевик, триллер
Год выпуска: 2015
Продолжительность: 02:03:49
Перевод 1: Профессиональный (дублированный) - BD RUS
Перевод 2: Одноголосый закадровый - М. Чадов
Cубтитры: английские
Оригинальная аудиодорожка: английский-Режиссер: Антуан Фукуа / Antoine Fuqua-В ролях: Джейк Джилленхол , Рэйчел МакАдамс , Форест Уитакер , Уна Лоуренс , Фифти Сент , Скайлан Брукс , Наоми Харрис , Виктор Ортис , Бо Напп , Мигель Гомес , Доминик Колон , Хосе Карабалло-Описание: У боксера Билли Хоупа все было прекрасно: звание чемпиона, красавица-жена и любимая дочка. Но фортуна отворачивается от него: при трагических обстоятельствах погибает любимая жена, дисквалификация на ринге, нулевые доходы, суд лишает его родительских прав... Хоуп должен отстоять звание чемпиона и вернуть дочь. Есть ли у Хоупа шансы на победу? Все решит его знаменитый хук левой...-Релиз:
-Качество видео: BDRip
Формат видео: MKV
Видео: MPEG-4 AVC, 7 037 Кбит/с, 1280x532, 23.976 кадр/с [HiDt]
Аудио: Русский DTS, 48,0 КГц, 16 бит, 6 ch, 1510 Кбит/с - Дублированный [BD RUS]
Аудио: Русский DTS, 48,0 КГц, 24 бит, 6 ch, 1510 Кбит/с - Одноголосый закадровый [М. Чадов]
Аудио: Английский DTS, 48,0 КГц, 24 бит, 6 ch, 1510 Кбит/с- -

М. Чадов

Цитата:
Цитата:

перевод доступен благодаря: Star Dog, mv73, sivservik, RW, MrGreen, Wa1ker, DarveSh, 1woody1. Работа со звуком Переводман

MediaInfo

Код:
Format                      : Matroska
Format version              : Version 2
File size                   : 10.2 GiB
Duration                    : 2h 3mn
Overall bit rate            : 11.7 Mbps
Movie name                  : BLUEBIRD
Encoded date                : UTC 2015-11-17 09:34:35
Writing application         : mkvmerge v7.9.0 ('Birds') 64bit
Writing library             : libebml v1.3.1 + libmatroska v1.4.2
Video
ID                          : 1
Format                      : AVC
Format/Info                 : Advanced Video Codec
Format profile              : High@L4.1
Format settings, CABAC      : Yes
Format settings, ReFrames   : 12 frames
Codec ID                    : V_MPEG4/ISO/AVC
Duration                    : 2h 3mn
Bit rate                    : 6 984 Kbps
Width                       : 1 280 pixels
Height                      : 532 pixels
Display aspect ratio        : 2.40:1
Frame rate mode             : Constant
Frame rate                  : 23.976 fps
Color space                 : YUV
Chroma subsampling          : 4:2:0
Bit depth                   : 8 bits
Scan type                   : Progressive
Bits/(Pixel*Frame)          : 0.428
Stream size                 : 6.04 GiB (59%)
Title                       : x264
Writing library             : x264 core 148 r2597 e86f3a1
Encoding settings           : cabac=1 / ref=12 / deblock=1:-3:-3 / analyse=0x3:0x133 / me=tesa / subme=11 / psy=1 / psy_rd=1.00:0.00 / mixed_ref=1 / me_range=32 / chroma_me=1 / trellis=2 / 8x8dct=1 / cqm=0 / deadzone=21,11 / fast_pskip=0 / chroma_qp_offset=-2 / threads=12 / lookahead_threads=3 / sliced_threads=0 / nr=0 / decimate=1 / interlaced=0 / bluray_compat=0 / constrained_intra=0 / bframes=10 / b_pyramid=2 / b_adapt=2 / b_bias=0 / direct=3 / weightb=1 / open_gop=0 / weightp=2 / keyint=240 / keyint_min=23 / scenecut=40 / intra_refresh=0 / rc_lookahead=60 / rc=crf / mbtree=0 / crf=16.1 / qcomp=0.73 / qpmin=0 / qpmax=69 / qpstep=4 / vbv_maxrate=62500 / vbv_bufsize=78125 / crf_max=0.0 / nal_hrd=none / filler=0 / ip_ratio=1.24 / pb_ratio=1.18 / aq=1:0.80
Language                    : English
Default                     : Yes
Forced                      : No
Audio #1
ID                          : 2
Format                      : DTS
Format/Info                 : Digital Theater Systems
Mode                        : 16
Format settings, Endianness : Big
Codec ID                    : A_DTS
Duration                    : 2h 3mn
Bit rate mode               : Constant
Bit rate                    : 1 509 Kbps
Channel(s)                  : 6 channels
Channel positions           : Front: L C R, Side: L R, LFE
Sampling rate               : 48.0 KHz
Bit depth                   : 16 bits
Compression mode            : Lossy
Stream size                 : 1.31 GiB (13%)
Title                       : BD RUS
Language                    : Russian
Default                     : Yes
Forced                      : No
Audio #2
ID                          : 3
Format                      : DTS
Format/Info                 : Digital Theater Systems
Mode                        : 16
Format settings, Endianness : Big
Codec ID                    : A_DTS
Duration                    : 2h 3mn
Bit rate mode               : Constant
Bit rate                    : 1 509 Kbps
Channel(s)                  : 6 channels
Channel positions           : Front: L C R, Side: L R, LFE
Sampling rate               : 48.0 KHz
Bit depth                   : 24 bits
Compression mode            : Lossy
Stream size                 : 1.31 GiB (13%)
Title                       : М. Чадов
Language                    : Russian
Default                     : No
Forced                      : No
Audio #3
ID                          : 4
Format                      : DTS
Format/Info                 : Digital Theater Systems
Mode                        : 16
Format settings, Endianness : Big
Codec ID                    : A_DTS
Duration                    : 2h 3mn
Bit rate mode               : Constant
Bit rate                    : 1 509 Kbps
Channel(s)                  : 6 channels
Channel positions           : Front: L C R, Side: L R, LFE
Sampling rate               : 48.0 KHz
Bit depth                   : 24 bits
Compression mode            : Lossy
Stream size                 : 1.31 GiB (13%)
Title                       : DTS 5.1
Language                    : English
Default                     : No
Forced                      : No
Text #1
ID                          : 5
Format                      : UTF-8
Codec ID                    : S_TEXT/UTF8
Codec ID/Info               : UTF-8 Plain Text
Language                    : English
Default                     : No
Forced                      : No
Text #2
ID                          : 6
Format                      : UTF-8
Codec ID                    : S_TEXT/UTF8
Codec ID/Info               : UTF-8 Plain Text
Title                       : SDH
Language                    : English
Default                     : No
Forced                      : No
Menu
00:00:00.000                : en:00:00:00.000
00:08:49.696                : en:00:08:49.696
00:12:58.569                : en:00:12:58.569
00:20:00.658                : en:00:20:00.658
00:23:40.085                : en:00:23:40.085
00:29:34.147                : en:00:29:34.147
00:34:59.556                : en:00:34:59.556
00:39:44.299                : en:00:39:44.299
00:45:46.285                : en:00:45:46.285
00:52:38.655                : en:00:52:38.655
00:59:28.815                : en:00:59:28.815
01:07:08.733                : en:01:07:08.733
01:12:49.824                : en:01:12:49.824
01:18:14.481                : en:01:18:14.481
01:23:40.057                : en:01:23:40.057
01:29:40.417                : en:01:29:40.417
01:37:00.148                : en:01:37:00.148
01:45:19.897                : en:01:45:19.897
01:55:01.061                : en:01:55:01.061
01:59:38.505                : en:01:59:38.505

Скриншоты


_________________
Показать сообщения:    

Текущее время: Сегодня 09:53

Часовой пояс: GMT



Вы не можете начинать темы
Вы не можете отвечать на сообщения
Вы не можете редактировать свои сообщения
Вы не можете удалять свои сообщения
Вы не можете голосовать в опросах
Вы не можете прикреплять файлы к сообщениям
Вы не можете скачивать файлы