Важное объявление!
У Нас Все раздачи мультитрекерные, при нуле пиров в релизах, можете смело вставать на закачку!
 
Автор Сообщение

HUNTER

Стаж:
4 года 11 месяцев
Сообщений:
66026

Репутация: 101

[+] [-]
Вне форума [Профиль] [ЛС]

Латино-американские танцы / Rumba


Год выпуска: 2007
Страна: Россия
Сайт производителя: отсутствует
Тематика: Танцы
Тип материала: Обучающее видео

Продолжительность: 02:40:00
Автор: Андрей Панферов
В ролях: Андрей Парфенов, Рогатнева Татьяна,Парфинская Ирина

Язык: Русский - Профессиональный (многоголосый, закадровый)
Субтитры: отсутствуют

Описание: Румба — парный кубинский танец африканского происхождения. Отличительной особенностью румбы являются эротические плавные движения, соединенные с широкими шагами. Наиболее известной во всем мире мелодией румбы нужно считать знаменитую «Guantanamera», написанную Жозеито Фернандесом и быстро ставшую классикой румбы.
Среди всех бальных танцев румба характеризуется наиболее глубоким эмоциональным содержанием. В ходе своей эволюции румба приобрела многие черты, характерные для блюза. Существует расхожий штамп, что «румба — танец любви». Следует подчеркнуть, что на самом деле румба, скорее, танец несчастной любви, танец одиночества. Контраст ярко выраженного эротического характера танца и драматического содержания музыки создаёт неповторимый эстетический эффект. Вопреки всеобщему мнению о том, что движения в румбе — это танцевальное воплощение эротических чувств, румба изначально была свадебным танцем, а ее движения обозначали не что иное как семейные обязанности супругов. Немногочисленные современные румбы, написанные в мажоре, имеют свою изюминку, но не оставляют такого глубокого впечатления.


Качество: DVDRip
Формат: AVI
Видео кодек: DivX
Аудио кодек: MP3
Видео: 720x480 (1.50:1), 25 fps, DivX Codec 5.x or 6.x ~1194 kbps avg, 0.14 bit/pixel
Аудио: 48 kHz, MPEG Layer 3, 2 ch, ~128.00 kbps avg

Доп. информация

В программе три уровня сложности

MediaInfo

Код: copyText_writeLink('this.parentNode.parentNode.nextSibling.nextSibling'); General
Complete name : E:\Обучение\Rumba\Заголовок_02.avi
Format : AVI
Format/Info : Audio Video Interleave
File size : 517 MiB
Duration : 54mn 7s
Overall bit rate : 1 336 Kbps
Writing application : Lavf51.12.1
Video
ID : 0
Format : MPEG-4 Visual
Format profile : Simple@L1
Format settings, BVOP : No
Format settings, QPel : No
Format settings, GMC : No warppoints
Format settings, Matrix : Default (H.263)
Codec ID : DX50
Codec ID/Hint : DivX 5
Duration : 54mn 7s
Bit rate : 1 195 Kbps
Width : 720 pixels
Height : 480 pixels
Display aspect ratio : 3:2
Frame rate : 25.000 fps
Standard : NTSC
Color space : YUV
Chroma subsampling : 4:2:0
Bit depth : 8 bits
Scan type : Progressive
Compression mode : Lossy
Bits/(Pixel*Frame) : 0.138
Stream size : 463 MiB (89%)
Writing library : Lavc51.40.4
Audio
ID : 1
Format : MPEG Audio
Format version : Version 1
Format profile : Layer 3
Mode : Joint stereo
Codec ID : 55
Codec ID/Hint : MP3
Duration : 54mn 7s
Bit rate mode : Constant
Bit rate : 128 Kbps
Channel(s) : 2 channels
Sampling rate : 48.0 KHz
Compression mode : Lossy
Stream size : 49.5 MiB (10%)
Alignment : Aligned on interleaves
Interleave, duration : 24 ms (0.60 video frame)
Interleave, preload duration : 24 ms

_________________
Показать сообщения:    

Текущее время: Сегодня 11:42

Часовой пояс: GMT



Вы не можете начинать темы
Вы не можете отвечать на сообщения
Вы не можете редактировать свои сообщения
Вы не можете удалять свои сообщения
Вы не можете голосовать в опросах
Вы не можете прикреплять файлы к сообщениям
Вы не можете скачивать файлы