Ивановский Торрент трекер
Яндекс.Погода
Статистика раздачи
Размер:  4.42 GB   |    Зарегистрирован:  1 год 8 месяцев   |    Скачан:  1 раз

Полного источника не было: 10 месяцев 29 дней

 
     
 
 
 

[Цитировать]
HUNTER

Ларри Краун / Larry Crowne
Страна: США
Жанр: драма, мелодрама, комедия
Год выпуска: 2011
Продолжительность: 01:38:36
Перевод: Профессиональный (дублированный)
Cубтитры: Russian (R5), Russian (voronine), English-Оригинальная аудиодорожка: английский-Режиссер: Том Хэнкс / Tom Hanks-В ролях: Том Хэнкс, Джулия Робертс, Сара Махони, Роксана Ортега, Рэндолл Парк, Брэйди Рубин, Алекс Кихано, Тина Хуанг, Тарина Паунси, Сай Ричардсон-Описание: До своего увольнения приветливый и любезный Ларри Краун был преуспевающим командным руководителем крупной компании, в которой он работал после службы на флоте. Под тяжестью ипотеки и будучи в неясности от того, что делать с внезапно появившимися свободными днями, Ларри направляется в местный колледж, чтобы начать все сначала.
Там он становится частью разношерстного сообщества изгоев и вечных неудачников, находящихся в постоянном поиске лучшего будущего для себя… и часто рассекающих по городским окрестностям на самокатах. На занятиях по технике публичных выступлений Ларри порождает неожиданную давку на своего учителя Мерседес Тэйнот, потерявшую столько же страсти к обучению, сколько у нее было ее для собственного мужа. Простой парень, у которого есть все основания думать, что его жизнь остановилась, усвоит неожиданный урок: когда Вы считаете, что все возможные ценности уже прошли мимо Вас, Вы можете обнаружить повод, чтобы жить.-Релиз от:
by DEOSS77-Качество видео: BDRip
Формат видео: MKV
Видео: 1280x534 at 23.976 fps, x264@L4.1, 2pass, ~5200 kbps avg
Аудио 1: Russian: 48 kHz, AC3, 3/2 (L,C,R,l,r) + LFE ch, ~448.00 kbps avg |Дубляж, R5|
Аудио 2: English: 48 kHz, DTS, 3/2 (L,C,R,l,r) + LFE ch, ~768.00 kbps avg-Скачать сэмпл-

Дополнительно

Цитата:
  • Сохранены оригинальные главы как на Blu-ray.

MI

Format                      : Matroska
Format version              : Version 2
File size                   : 4.42 GiB
Duration                    : 1h 38mn
Overall bit rate            : 6 418 Kbps
Movie name                  : Larry Crowne (2011) - Release for HDCLUB
Encoded date                : UTC 2011-11-07 13:56:03
Writing application         : mkvmerge v5.0.1 ('Es ist Sommer') built on Oct  9 2011 11:55:43
Writing library             : libebml v1.2.2 + libmatroska v1.3.0
Video
ID                          : 1
Format                      : AVC
Format/Info                 : Advanced Video Codec
Format profile              : High@L4.1
Format settings, CABAC      : Yes
Format settings, ReFrames   : 11 frames
Codec ID                    : V_MPEG4/ISO/AVC
Duration                    : 1h 38mn
Bit rate                    : 5 200 Kbps
Width                       : 1 280 pixels
Height                      : 534 pixels
Display aspect ratio        : 2.40:1
Frame rate mode             : Constant
Frame rate                  : 23.976 fps
Color space                 : YUV
Chroma subsampling          : 4:2:0
Bit depth                   : 8 bits
Scan type                   : Progressive
Bits/(Pixel*Frame)          : 0.317
Stream size                 : 3.49 GiB (79%)
Title                       : Larry Crowne (2011) - Release for HDCLUB
Writing library             : x264 core 119 r2106 07efeb4
Encoding settings           : cabac=1 / ref=11 / deblock=1:-3:-3 / analyse=0x3:0x133 / me=umh / subme=11 / psy=1 / psy_rd=0.90:0.00 / mixed_ref=1 / me_range=48 / chroma_me=1 / trellis=2 / 8x8dct=1 / cqm=0 / deadzone=21,11 / fast_pskip=0 / chroma_qp_offset=-2 / threads=12 / sliced_threads=0 / nr=0 / decimate=0 / interlaced=0 / bluray_compat=0 / constrained_intra=0 / bframes=7 / b_pyramid=2 / b_adapt=2 / b_bias=0 / direct=3 / weightb=1 / open_gop=0 / weightp=2 / keyint=250 / keyint_min=23 / scenecut=40 / intra_refresh=0 / rc_lookahead=40 / rc=2pass / mbtree=1 / bitrate=5200 / ratetol=1.0 / qcomp=0.60 / qpmin=0 / qpmax=69 / qpstep=4 / cplxblur=20.0 / qblur=0.5 / ip_ratio=1.40 / aq=2:0.80
Language                    : English
Default                     : No
Forced                      : Yes
Audio #1
ID                          : 2
Format                      : AC-3
Format/Info                 : Audio Coding 3
Mode extension              : CM (complete main)
Format settings, Endianness : Big
Codec ID                    : A_AC3
Duration                    : 1h 38mn
Bit rate mode               : Constant
Bit rate                    : 448 Kbps
Channel(s)                  : 6 channels
Channel positions           : Front: L C R, Side: L R, LFE
Sampling rate               : 48.0 KHz
Compression mode            : Lossy
Stream size                 : 316 MiB (7%)
Title                       : Дубляж, R5
Language                    : Russian
Default                     : Yes
Forced                      : Yes
Audio #2
ID                          : 3
Format                      : DTS
Format/Info                 : Digital Theater Systems
Mode                        : 16
Format settings, Endianness : Big
Codec ID                    : A_DTS
Duration                    : 1h 38mn
Bit rate mode               : Constant
Bit rate                    : 768 Kbps
Channel(s)                  : 6 channels
Channel positions           : Front: L C R, Side: L R, LFE
Sampling rate               : 48.0 KHz
Bit depth                   : 24 bits
Compression mode            : Lossy
Stream size                 : 542 MiB (12%)
Language                    : English
Default                     : No
Forced                      : No
Text #1
ID                          : 4
Format                      : UTF-8
Codec ID                    : S_TEXT/UTF8
Codec ID/Info               : UTF-8 Plain Text
Title                       : R5
Language                    : Russian
Default                     : No
Forced                      : No
Text #2
ID                          : 5
Format                      : UTF-8
Codec ID                    : S_TEXT/UTF8
Codec ID/Info               : UTF-8 Plain Text
Title                       : Voronine
Language                    : Russian
Default                     : No
Forced                      : No
Text #3
ID                          : 6
Format                      : UTF-8
Codec ID                    : S_TEXT/UTF8
Codec ID/Info               : UTF-8 Plain Text
Language                    : English
Default                     : No
Forced                      : No
Menu
00:00:00.000                : en:Chapter 01
00:07:17.019                : en:Chapter 02
00:15:29.261                : en:Chapter 03
00:24:31.177                : en:Chapter 04
00:33:43.187                : en:Chapter 05
00:42:30.422                : en:Chapter 06
00:50:33.405                : en:Chapter 07
00:58:35.845                : en:Chapter 08
01:05:12.992                : en:Chapter 09
01:14:06.442                : en:Chapter 10
01:25:03.723                : en:Chapter 11
01:30:54.323                : en:Chapter 12

Скриншоты

[iv-torrents.ru].t55650.torrent
Торрент: Зарегистрирован [ 2016-03-29 10:00 ] · 5427CE2BA90D504083D29EB27DD38EF92C0E403D

Скачать .torrent

Скачать

23 KB

Статус: проверено
Скачан: 1 раз
Размер: 4.42 GB
terms.php
Похожие темы


Показать сообщения:    

Текущее время: 15-Дек 14:14

Часовой пояс: UTC ± 0


Вы не можете начинать темы
Вы не можете отвечать на сообщения
Вы не можете редактировать свои сообщения
Вы не можете удалять свои сообщения
Вы не можете голосовать в опросах
Вы не можете прикреплять файлы к сообщениям
Вы можете скачивать файлы

!ВНИМАНИЕ!
Сайт не предоставляет электронные версии произведений, а занимается лишь коллекционированием и каталогизацией ссылок, присылаемых и публикуемых на форуме нашими читателями. Если вы являетесь правообладателем какого-либо представленного материала и не желаете, чтобы ссылка на него находилась в нашем каталоге, свяжитесь с нами, и мы незамедлительно удалим ее. Файлы для обмена на трекере предоставлены пользователями сайта, и администрация не несет ответственности за их содержание. Просьба не заливать файлы, защищенные авторскими правами, а также файлы нелегального содержания!