Важное объявление!
У Нас Все раздачи мультитрекерные, при нуле пиров в релизах, можете смело вставать на закачку!
 
Автор Сообщение

HUNTER

Стаж:
4 года 9 месяцев
Сообщений:
65047

Репутация: 101

[+] [-]
Вне форума [Профиль] [ЛС]

Ландшафтный дизайн / How-To Guide to Landscaping
Страна: USA
Тематика: Строительство, Дизайн
Тип раздаваемого материала: Видеоурок
Продолжительность: 01:49:46
Год выпуска: 2004
Язык: Английский
Перевод: Отсутствует-Описание: Данный диск является сборником сюжетов из передачи ХоумТайм с Дином Джонсоном на тему ланшафтного дизайна. Вначале рассказано о планировании сада и посадке растений, затем два сюжета про укладку плитки и подпорные стенки. И в завершении - установка заборов и ограждений.
Что интересного есть в этом видео:
- Романтика восьмидесятых и ранних девяностых
- Дин Джонсон с усами и без усов
- Безжалостная эксплуатация женского труда на земляных работах (Отсюда текучка кадров. Четыре девушки за две пятилетки)
Другие диски HomeTime:
Руководство по укладке керамической плитки
Нанесение на стены декоративных покрытий-Качество: DVDRip
Формат: AVI
Видео: XviD, 512x384, 4:3, 828 kbps, 29.97 fps
Аудио: MP3, 56 kbps, 44.1 kHz, 1 ch

MediaInfo

Format : AVIFormat/Info : Audio Video InterleaveFormat profile : OpenDMLFormat settings : recFile size : 698 MiBDuration : 1h 49mnOverall bit rate : 889 KbpsWriting application : AVI-Mux GUI 1.17.4.3, Nov 14 2005 20:11:25
VideoID : 0Format : MPEG-4 VisualFormat profile : Advanced Simple@L5Format settings, BVOP : 2Format settings, QPel : NoFormat settings, GMC : No warppointsFormat settings, Matrix : Default (H.263)Muxing mode : Packed bitstreamCodec ID : XVIDCodec ID/Hint : XviDDuration : 1h 49mnBit rate : 828 KbpsWidth : 512 pixelsHeight : 384 pixelsDisplay aspect ratio : 4:3Frame rate : 29.970 fpsColor space : YUVChroma subsampling : 4:2:0Bit depth : 8 bitsScan type : ProgressiveCompression mode : LossyBits/(Pixel*Frame) : 0.141Stream size : 650 MiB (93%)Writing library : XviD 1.1.0 (UTC 2005-11-22)
AudioID : 1Format : MPEG AudioFormat version : Version 1Format profile : Layer 3Codec ID : 55Codec ID/Hint : MP3Duration : 1h 49mnBit rate mode : ConstantBit rate : 56.0 KbpsChannel(s) : 1 channelSampling rate : 44.1 KHzCompression mode : LossyStream size : 44.0 MiB (6%)Alignment : Aligned on interleavesInterleave, duration : 882 ms (26.43 video frames)Interleave, preload duration : 208 msTitle : px sunetulWriting library : LAME3.96rEncoding settings : -m m -V 4 -q 3 -lowpass 15 -b 56

_________________
Показать сообщения:    

Текущее время: Сегодня 18:05

Часовой пояс: GMT



Вы не можете начинать темы
Вы не можете отвечать на сообщения
Вы не можете редактировать свои сообщения
Вы не можете удалять свои сообщения
Вы не можете голосовать в опросах
Вы не можете прикреплять файлы к сообщениям
Вы не можете скачивать файлы