Лаборатория Декстера: Путешествие в Cвое Будущее / Dexter\'s Laboratory: Ego Trip (Геннадий Тартаковский / Genndy Tartakovsky) [1999, Приключения, Научная Фантастика, SatRip-AVC] Dub :: Ивановский Торрент трекер
Важное объявление!
У Нас Все раздачи мультитрекерные, при нуле пиров в релизах, можете смело вставать на закачку!
Статистика раздачи
Размер:     |    Зарегистрирован:     |    Скачан:     |   
Нет
 
     
 
 
Автор Сообщение

HUNTER

Стаж:
4 года 11 месяцев
Сообщений:
66112

Репутация: 101

[+] [-]
Вне форума [Профиль] [ЛС]

Страна: США
Студия: Hanna-Barbera Productions
Жанр: Приключения, Научная Фантастика
Продолжительность: 00:48:01
Год выпуска: 1999
Перевод: Профессиональный (дублированный) Мост-Видео
Субтитры: Нет
Режиссёр: Геннадий Тартаковский / Genndy Tartakovsky
Роли озвучивали: Christine Cavanaugh, Jeff Bennett, Kathryn Cressida, Eddie Deezen, Kath Soucie, Tom Kenny-Роли дублировали: Ольга Кузницова, Алексей Золотнитский, Дмитрий Филимонов-Описание: Юный вундеркинд Декстер дни и ночи проводит в своей лаборатории. Гениальные изобретения выходят из его рук, словно пирожки. Однако, это вызывает не только восхищение окружающих, но и черную зависть одноклассника - двоечника, который спит и видит, как украсть то или иное творение Декстера и приписать авторство себе! Декстер начинает серьезно беспокоится о том, во что все это выльется в будущем. И вот, с помощью машины времени, он отправляется в длительное путешествие в будущее, неоднократно встречая там... себя самого! Удастся ли всем Декстерам из разных периодов времени исправить в будущем ошибки прошлого?-Релиз группы: -Огромная Благодарность:
alenavova - за предоставление оцифровки лицензионной VHS от Мост-Видео из личной коллекции.-Качество: SatRip-AVC
Формат: MKV
Видео: MPEG-4 AVC, 716x520 (16:9), 25.000 fps, ~ 1775 kbps
Аудио 1: Русский, AC3 Dolby Digital, 2 ch, 192 kbps, 48 kHz
Аудио 2: Английский, MP2, 1 ch, 128 kbps, 48 kHz
Сэмпл
Все раздачи мультфильма
Все раздачи мультсериала - Dexter's Laboratory

Скриншоты



MediaInfo


Общее
Уникальный идентификатор : 170830997102612339456951592843966718155 (0x8084DA703A0F5EF19F7FA65EE770A0CB)
Полное имя : D:\Раздачи\Dexter's.Laboratory.EgoTrip.1999.x264.TVRip-RGMultfilms.mkv
Формат : Matroska
Версия формата : Version 4 / Version 2
Размер файла : 734 Мбайт
Продолжительность : 48 м.
Общий поток : 2138 Кбит/сек
Дата кодирования : UTC 2015-03-07 23:01:45
Программа кодирования : mkvmerge v7.7.0 ('Six Voices') 64bit built on Feb 28 2015 23:39:33
Библиотека кодирования : libebml v1.3.1 + libmatroska v1.4.2
Видео
Идентификатор : 1
Формат : AVC
Формат/Информация : Advanced Video Codec
Профиль формата : High@L4.1
Параметр CABAC формата : Да
Параметр ReFrames формата : 16 кадров
Идентификатор кодека : V_MPEG4/ISO/AVC
Продолжительность : 48 м.
Битрейт : 1775 Кбит/сек
Ширина : 716 пикселей
Высота : 520 пикселей
Соотношение сторон : 1,377
Режим частоты кадров : Постоянный
Частота кадров : 25,000 кадров/сек
Цветовое пространство : YUV
Субдискретизация насыщенности : 4:2:0
Битовая глубина : 8 бит
Тип развёртки : Прогрессивная
Бит/(Пиксели*Кадры) : 0.191
Размер потока : 610 Мбайт (83%)
Заголовок : Dexter's Laboratory: Ego Trip
Библиотека кодирования : x264 core 135 r2345 f0c1c53
Настройки программы : cabac=1 / ref=16 / deblock=1:1:1 / analyse=0x3:0x133 / me=umh / subme=9 / psy=1 / psy_rd=0.40:0.00 / mixed_ref=1 / me_range=16 / chroma_me=1 / trellis=2 / 8x8dct=1 / cqm=0 / deadzone=21,11 / fast_pskip=1 / chroma_qp_offset=-2 / threads=12 / lookahead_threads=1 / sliced_threads=0 / nr=0 / decimate=1 / interlaced=0 / bluray_compat=0 / constrained_intra=0 / bframes=5 / b_pyramid=2 / b_adapt=2 / b_bias=0 / direct=3 / weightb=1 / open_gop=0 / weightp=2 / keyint=250 / keyint_min=25 / scenecut=40 / intra_refresh=0 / rc_lookahead=60 / rc=crf / mbtree=1 / crf=18.0 / qcomp=0.60 / qpmin=0 / qpmax=69 / qpstep=4 / vbv_maxrate=62500 / vbv_bufsize=78125 / crf_max=0.0 / nal_hrd=none / ip_ratio=1.40 / aq=1:0.60
Default : Да
Forced : Нет
Аудио #1
Идентификатор : 2
Формат : AC-3
Формат/Информация : Audio Coding 3
Расширение режима : CM (complete main)
Параметр Endianness формата : Big
Идентификатор кодека : A_AC3
Продолжительность : 48 м.
Вид битрейта : Постоянный
Битрейт : 192 Кбит/сек
Каналы : 2 канала
Расположение каналов : Front: L R
Частота : 48,0 КГц
Битовая глубина : 16 бит
Метод сжатия : С потерями
Размер потока : 65,9 Мбайт (9%)
Заголовок : DUB Most-Video - AC3 Dolby Digital, 2ch, 192 kbps, 48 kHz
Язык : Russian
Default : Да
Forced : Нет
Аудио #2
Идентификатор : 3
Формат : MPEG Audio
Версия формата : Version 1
Профиль формата : Layer 2
Идентификатор кодека : A_MPEG/L2
Идентификатор кодека/Подсказка : MP2
Продолжительность : 48 м.
Вид битрейта : Постоянный
Битрейт : 128 Кбит/сек
Каналы : 1 канал
Частота : 48,0 КГц
Метод сжатия : С потерями
Задержка видео : 34 мс.
Размер потока : 44,0 Мбайт (6%)
Заголовок : Original - MP2, 1ch, 128 kbps, 48 kHz
Язык : English
Default : Нет
Forced : Нет

_________________
Показать сообщения:    

Текущее время: Сегодня 22:52

Часовой пояс: GMT



Вы не можете начинать темы
Вы не можете отвечать на сообщения
Вы не можете редактировать свои сообщения
Вы не можете удалять свои сообщения
Вы не можете голосовать в опросах
Вы не можете прикреплять файлы к сообщениям
Вы не можете скачивать файлы