Важное объявление!
У Нас Все раздачи мультитрекерные, при нуле пиров в релизах, можете смело вставать на закачку!
 
Автор Сообщение

HUNTER

Стаж:
4 года 10 месяцев
Сообщений:
65561

Репутация: 101

[+] [-]
Вне форума [Профиль] [ЛС]

Лаборатория Декстера. Путешествие в свое будущее / Лаборатория Декстера: Загляни в свое бу / Dexter's Laboratory: Ego Trip
Страна: США
Жанр: Анимация
Продолжительность: 00:48:17
Год выпуска: 1999
Перевод: Профессиональный (дублированный)
Русские субтитры: нет
Режиссёр: Генндий Тартаковский / Genndy Tartakovsky
Роли озвучивали: Рабочая группа озвучивания:
Фильм дублирован на студии "Мост Видео"
Автор синхронного текста и режиссер: Валентина Кузнецова
Звукооператор: Леонид Чечиков
Перевод: Ирина Добровольская
Директор: Людмила Бронникова
Роли дублировали: Ольга Кузнецова, Алексей Золотницкий, Дмитрий Филлимонов
Описание: Юный вундеркинд Декстер дни и ночи проводит в своей лаборатории. Гениальные изобретения выходят из его рук, словно пирожки. Однако, это вызывает не только восхищение окружающих, но и черную зависть одноклассника - двоечника, который спит и видит, как украсть то или иное творение Декстера и приписать авторство себе! Декстер начинает серьезно беспокоится о том, во что все это выльется в будущем. И вот, с помощью машины времени, он отправляется в длительное путешествие в будущее, неоднократно встречая там...себя самого! Удастся ли всем Декстерам из разных периодов времени исправить в будущем ошибки прошлого?
Доп. информация: http://www.imdb.com/title/tt0293092/?ref_=fn_al_tt_1
Оцифровка VHS (личный архив) и получение VHSRip alenavova
Эксклюзив для rutracker.org. При размещении данного релиза на других сайтах ссылка на автора alenavova обязательна.

Релиз
Семпл: https://yadi.sk/i/N83BTwNKc2wp7
Качество: VHSRip
Формат: AVI
Видео: 640x480 (1.33:1), 25 fps, XviD build 50 ~1999 kbps avg, 0.26 bit/pixel
Аудио: 48 kHz, AC3 Dolby Digital, 2/0 (L,R) ch, ~192 kbps
Субтитры: отсутствуют

Подробные технические данные

Лаборатория Декстера. Путешествие в свое будущее - Dexter's Laboratory. Ego Trip [by alenavova] .aviFormat : AVIFormat/Info : Audio Video InterleaveFile size : 760 MiBDuration : 48mn 17sOverall bit rate : 2 202 KbpsMovie name : Лаборатория Декстера. Путешествие в свое будущее - Dexter's Laboratory. Ego Trip [by alenavova]Director : by alenavovaWriting application : VirtualDubMod 1.5.10.3 | www.virtualdub-fr.org || (build 2550/release)Copyright : Edich2Comment : RuTracker.org
VideoID : 0Format : MPEG-4 VisualFormat profile : Advanced Simple@L5Format settings, BVOP : 2Format settings, QPel : NoFormat settings, GMC : No warppointsFormat settings, Matrix : CustomCodec ID : XVIDCodec ID/Hint : XviDDuration : 48mn 17sBit rate : 2 000 KbpsWidth : 640 pixelsHeight : 480 pixelsDisplay aspect ratio : 4:3Frame rate : 25.000 fpsColor space : YUVChroma subsampling : 4:2:0Bit depth : 8 bitsScan type : ProgressiveCompression mode : LossyBits/(Pixel*Frame) : 0.260Stream size : 691 MiB (91%)Writing library : XviD 1.2.1 (UTC 2008-12-04)
AudioID : 1Format : AC-3Format/Info : Audio Coding 3Mode extension : CM (complete main)Format settings, Endianness : BigCodec ID : 2000Duration : 48mn 17sBit rate mode : ConstantBit rate : 192 KbpsChannel(s) : 2 channelsChannel positions : Front: L RSampling rate : 48.0 KHzBit depth : 16 bitsCompression mode : LossyStream size : 66.3 MiB (9%)Alignment : Split accross interleavesInterleave, duration : 40 ms (1.00 video frame)Interleave, preload duration : 500 ms

Скриншоты


_________________
Показать сообщения:    

Текущее время: Сегодня 04:37

Часовой пояс: GMT



Вы не можете начинать темы
Вы не можете отвечать на сообщения
Вы не можете редактировать свои сообщения
Вы не можете удалять свои сообщения
Вы не можете голосовать в опросах
Вы не можете прикреплять файлы к сообщениям
Вы не можете скачивать файлы