Важное объявление!
У Нас Все раздачи мультитрекерные, при нуле пиров в релизах, можете смело вставать на закачку!
 
Автор Сообщение

HUNTER

Стаж:
4 года 10 месяцев
Сообщений:
65511

Репутация: 101

[+] [-]
Вне форума [Профиль] [ЛС]

Лабиринт / Lavirint
Страна: Югославия
Жанр: триллер
Год выпуска: 2002
Продолжительность: 01:54:29
Перевод: Авторский (одноголосый закадровый) Алексеев
Cубтитры: английские
Оригинальная аудиодорожка: сербский
Режиссер: Мирослав Лекич / Miroslav Lekiс
В ролях: Драган Николич, Майя Саблич, Бранислав Летшич, Катарина Радивоевич, Йосиф Татич, Светозар Цветкович
Описание: Cовременный триллер, действие которого разворачивается в сегодняшнем Белграде на улочках Дорчола и закоулках Калемегдана. Тайны прошлого города в устье Савы и мистические христианские секты , существовавшие когда-то на этих землях, оставляют неисчезающую печать на жизнях сегодняшних горожан и вершат судьбы людей в течении многих веков. Главный герой Боб возвращается на родину в Югославию после долгих лет отсутствия. Ему сообщает гадалка, что его друг детства Зоран не покончил собой много лет назад, а его убили. С этого момента начинается долгий путь по лабиринту познания...
Доп. информация: Русская звуковая дорожка взята с этой раздачи http://rutracker.org/forum/viewtopic.php?t=1542597 автору больщое спасибо.
За синхронизацию огромное спасибо Нордер.
При пересборе двд были использованы программы:
PgcDemux - разделение компонентов диска на файлы
Muxman - мультиплексирование и авторинг DVD
VobBlanker - реавторинг DVD

Скрин завершения проекта

Бонусы: Трейлер, галерея, making of
Сэмпл: http://sendfile.su/1122497
Тип релиза: DVD9 (Custom)
Контейнер: DVD-Video
Видео: PAL 4:3 (720x576) VBR
Аудио: Russian (Dolby AC3, 192 Кбит/сек, 2 ch)
Аудио 2: Serbian (Dolby AC3, 448 Кбит/сек, 6 ch)

DVDInfo

Size: 6.70 Gb ( 7 023 672 KBytes ) - DVD-9
Enabled regions: 1, 2, 3, 4, 5, 6, 7, 8
VTS_01 :
Play Length: 01:54:29
Video: PAL 4:3 (720x576) VBR
Audio:
Russian (Dolby AC3, 2 ch)
Serbian (Dolby AC3, 6 ch)
Subtitles:
English
Francais
Deutsch
Macedonian
Slovenian
VTS_02 :
Play Length: 00:00:11
Video: PAL 4:3 (720x576) VBR
Audio:
English (Dolby AC3, 2 ch)
Subtitles:
English
Francais
Deutsch
Macedonian
Slovenian
VTS_03 :
Play Length:
Video: PAL 4:3 (720x576) VBR
VTS_04 :
Play Length: 00:00:13+00:00:11
Video: PAL 4:3 (720x576) VBR
Subtitles:
English
Francais
Deutsch
Macedonian
Slovenian
VTS_05 :
Play Length: 00:02:04+00:01:16+00:01:44+00:03:05
Video: PAL 4:3 (720x576) VBR
Audio:
Serbian (Dolby AC3, 2 ch)
VTS_06 :
Play Length: 00:25:39
Video: PAL 4:3 (720x576) VBR
Audio:
Serbian (Dolby AC3, 2 ch)
Subtitles:
English
Francais
Deutsch
Macedonian
Slovenian
VTS_07 :
Play Length: 00:00:12
Video: PAL 4:3 (720x576) VBR
Audio:
English (Dolby AC3, 2 ch)
Menu Video:
PAL 4:3 (720x576) VBR
Menu English Language Unit :
Root Menu

MediaInfo

Общее
Полное имя : F:\Lavirint_2002\VIDEO_TS\VTS_01_1.VOB
Формат : MPEG-PS
Размер файла : 1024 Мбайт
Продолжительность : 21 м.
Режим общего битрейта : Переменный
Общий поток : 6643 Кбит/сек
Видео
Идентификатор : 224 (0xE0)
Формат : MPEG Video
Версия формата : Version 2
Профиль формата : Main@Main
Параметр BVOP формата : Да
Параметр матрицы формата : Выборочная
Продолжительность : 21 м.
Вид битрейта : Переменный
Битрейт : 5871 Кбит/сек
Максимальный битрейт : 9200 Кбит/сек
Ширина : 720 пикселей
Высота : 576 пикселей
Соотношение сторон : 4:3
Частота кадров : 25,000 кадров/сек
Стандарт вещания : PAL
Цветовое пространство : YUV
Субдискретизация насыщенности : 4:2:0
Битовая глубина : 8 бит
Тип развёртки : Прогрессивная
Метод сжатия : С потерями
Бит/(Пиксели*Кадры) : 0.566
Размер потока : 905 Мбайт (88%)
Аудио #1
Идентификатор : 189 (0xBD)-128 (0x80)
Формат : AC-3
Формат/Информация : Audio Coding 3
Расширение режима : CM (complete main)
Параметр Endianness формата : Big
Режим смешивания : DVD-Video
Продолжительность : 21 м.
Вид битрейта : Постоянный
Битрейт : 192 Кбит/сек
Каналы : 2 канала
Расположение каналов : Front: L R
Частота : 48,0 КГц
Битовая глубина : 16 бит
Метод сжатия : С потерями
Размер потока : 29,6 Мбайт (3%)
Аудио #2
Идентификатор : 189 (0xBD)-129 (0x81)
Формат : AC-3
Формат/Информация : Audio Coding 3
Расширение режима : CM (complete main)
Параметр Endianness формата : Big
Режим смешивания : DVD-Video
Продолжительность : 21 м.
Вид битрейта : Постоянный
Битрейт : 448 Кбит/сек
Каналы : 6 каналов
Расположение каналов : Front: L C R, Side: L R, LFE
Частота : 48,0 КГц
Битовая глубина : 16 бит
Метод сжатия : С потерями
Размер потока : 69,0 Мбайт (7%)
Текст #1
Идентификатор : 189 (0xBD)-32 (0x20)
Формат : RLE
Формат/Информация : Run-length encoding
Режим смешивания : DVD-Video
Текст #2
Идентификатор : 189 (0xBD)-33 (0x21)
Формат : RLE
Формат/Информация : Run-length encoding
Режим смешивания : DVD-Video
Текст #3
Идентификатор : 189 (0xBD)-34 (0x22)
Формат : RLE
Формат/Информация : Run-length encoding
Режим смешивания : DVD-Video
Текст #4
Идентификатор : 189 (0xBD)-35 (0x23)
Формат : RLE
Формат/Информация : Run-length encoding
Режим смешивания : DVD-Video
Текст #5
Идентификатор : 189 (0xBD)-36 (0x24)
Формат : RLE
Формат/Информация : Run-length encoding
Режим смешивания : DVD-Video
Меню

Скриншоты меню

Скриншоты


_________________
Показать сообщения:    

Текущее время: Сегодня 04:47

Часовой пояс: GMT



Вы не можете начинать темы
Вы не можете отвечать на сообщения
Вы не можете редактировать свои сообщения
Вы не можете удалять свои сообщения
Вы не можете голосовать в опросах
Вы не можете прикреплять файлы к сообщениям
Вы не можете скачивать файлы