Важное объявление!
У Нас Все раздачи мультитрекерные, при нуле пиров в релизах, можете смело вставать на закачку!
Статистика раздачи
Размер:     |    Зарегистрирован:     |    Скачан:     |   
Нет
 
     
 
 
Автор Сообщение

HUNTER

Стаж:
5 лет 1 месяц
Сообщений:
68449

Репутация: 101

[+] [-]
Вне форума [Профиль] [ЛС]

| BDRip 1080p, 5.77 GB |- P R E S E N T SКумба / Khumba-
Страна: ЮАР
Жанр: мультфильм, приключения, семейный
Продолжительность: 01:25:18
Год выпуска: 2013
Перевод: Профессиональный (дублированный)
Субтитры: английские (полные и для слабослышащих), испанские (полные)-Режиссёр: Энтони Силверстон / Anthony Silverston
Роли озвучивали: Джейк Т. Остин, Лиам Нисон, Стив Бушеми, Анна-София Робб, Лоренс Фишбёрн, Грег Эллис, Ричард Э. Грант, Кэтрин Тейт, Чарльз Адлер, Ди Брэдли Бейкер, Джефф Беннетт, Мэйсон Чарльз, Дженнифер Коуди, Кэтрин Крессида, Лоретта Дивайн, Девон Грайе, Роджер Л. Джексон, Хуанита Дженнингс...- | | -Описание: Зебра Кумба с самого рождения был посмешищем всего стада из-за того, что родился наполовину полосатым, а наполовину белым. Хуже того, когда началась Великая Засуха, сородичи решили, что он проклят, и в нем причина всех бед. Стадо изгнало Кумбу, и даже отец отвернулся от него! Отважная полуполосатая зебра отправляется в опасные и веселые приключения, чтобы найти недостающие полоски и заслужить уважение семьи...-Доп. информация: BDRip 1080p сделан с комбинированного Blu-Ray диска Кумба / Khumba (2013) Blu-ray 3D Disc [3D/2D] -BLUEBIRD.
Исходная оригинальная звуковая дорожка TrueHD 5.1 пересобрана в DTS-HD MA 5.1, в релизе используется ядро.
-Сэмпл/Sample (85.7 MB, 1 минута)-Качество: BDRip 1080p
Формат: MKV
Видео: 1920x800 (2.40:1), 23,976 fps, ~7731 kbps avg, 0.210 bit/pixel
Аудио #1: Русский, AC3, 6 ch, 48 kHz, 448 kbps - Дубляж
Аудио #3: English, DTS / 5.1 / 48 kHz / 1509 kbps / 16 bit - Original
Субтитры: English (Full, SDH), Spanish (Full)
Навигация по главам: есть (12 именованных глав)

MediaInfo / x264Log

x264Log

raw [info]: 1920x800p 1:1 @ 24000/1001 fps (cfr)x264 [info]: using SAR=1/1x264 [info]: using cpu capabilities: MMX2 SSE2Fast SSSE3 SSE4.2 AVX XOP FMA4 FMA3 LZCNT BMI1x264 [info]: profile High, level 4.1x264 [info]: frame I:1269 Avg QP:11.53 size:291911 PSNR Mean Y:50.86 U:53.26 V:53.68 Avg:51.51 Global:50.93x264 [info]: frame P:31603 Avg QP:13.12 size: 73128 PSNR Mean Y:49.17 U:52.37 V:52.90 Avg:49.93 Global:49.09x264 [info]: frame B:89837 Avg QP:15.32 size: 25216 PSNR Mean Y:48.44 U:51.79 V:52.35 Avg:49.24 Global:48.45x264 [info]: consecutive B-frames: 2.9% 5.2% 8.7% 51.3% 14.1% 12.7% 2.2% 0.9% 0.4% 0.8% 0.2% 0.4% 0.2%x264 [info]: mb I I16..4: 5.4% 70.5% 24.2%x264 [info]: mb P I16..4: 1.6% 16.8% 4.0% P16..4: 21.1% 19.7% 11.6% 3.5% 0.5% skip:21.3%x264 [info]: mb B I16..4: 0.7% 3.8% 1.0% B16..8: 23.1% 15.2% 3.0% direct: 6.1% skip:47.1% L0:37.3% L1:44.1% BI:18.6%x264 [info]: 8x8 transform intra:72.4% inter:40.9%x264 [info]: coded y,uvDC,uvAC intra: 80.6% 84.9% 73.7% inter: 20.2% 14.3% 5.3%x264 [info]: i16 v,h,dc,p: 41% 19% 9% 31%x264 [info]: i8 v,h,dc,ddl,ddr,vr,hd,vl,hu: 12% 14% 19% 7% 8% 8% 9% 10% 12%x264 [info]: i4 v,h,dc,ddl,ddr,vr,hd,vl,hu: 14% 14% 27% 6% 9% 7% 8% 6% 8%x264 [info]: i8c dc,h,v,p: 44% 29% 17% 11%x264 [info]: Weighted P-Frames: Y:3.0% UV:2.5%x264 [info]: ref P L0: 64.2% 11.9% 17.2% 6.0% 0.7% 0.0%x264 [info]: ref B L0: 86.3% 11.1% 2.6%x264 [info]: ref B L1: 93.7% 6.3%x264 [info]: SSIM Mean Y:0.9916510 (20.784db)x264 [info]: PSNR Mean Y:48.651 U:51.959 V:52.502 Avg:49.438 Global:48.625 kb/s:7732.44encoded 122709 frames, 6.42 fps, 7732.44 kb/s
GeneralUnique ID : 190459084294412725129217035486281597242 (0x8F4915DA4E0D0CFA92D9B09357FC013A)Complete name : Khumba.2013.BDRip.1080p.dfcbit.mkvFormat : MatroskaFormat version : Version 2File size : 5.77 GiBDuration : 1h 25mnOverall bit rate : 9 692 KbpsEncoded date : UTC 2014-02-21 04:20:02Writing application : mkvmerge v4.0.0 ('The Stars were mine') built on Jun 6 2010 16:18:42Writing library : libebml v1.0.0 + libmatroska v1.0.0
VideoID : 1Format : AVCFormat/Info : Advanced Video CodecFormat profile : High@L4.1Format settings, CABAC : YesFormat settings, ReFrames : 4 framesCodec ID : V_MPEG4/ISO/AVCDuration : 1h 25mnBit rate : 7 731 KbpsWidth : 1 920 pixelsHeight : 800 pixelsDisplay aspect ratio : 2.40:1Frame rate mode : ConstantFrame rate : 23.976 fpsColor space : YUVChroma subsampling : 4:2:0Bit depth : 8 bitsScan type : ProgressiveBits/(Pixel*Frame) : 0.210Stream size : 4.61 GiB (78%)Title : NTSC, 1920x800 (2.40:1), BDRip 1080p - tRuAVC & Multfilmy [DFCbit]Writing library : x264 core 142 r2389kMod 956c8d8Encoding settings : cabac=1 / ref=4 / deblock=1:-3:-2 / analyse=0x3:0x133 / me=umh / subme=11 / psy=1 / fade_compensate=0.00 / psy_rd=0.63:0.00 / mixed_ref=1 / me_range=32 / chroma_me=1 / trellis=2 / 8x8dct=1 / cqm=0 / deadzone=21,11 / fast_pskip=0 / chroma_qp_offset=-2 / threads=12 / lookahead_threads=3 / sliced_threads=0 / nr=0 / decimate=1 / interlaced=0 / bluray_compat=0 / constrained_intra=0 / fgo=0 / bframes=12 / b_pyramid=2 / b_adapt=2 / b_bias=0 / direct=1 / weightb=1 / open_gop=0 / weightp=2 / keyint=250 / keyint_min=23 / scenecut=40 / intra_refresh=0 / rc_lookahead=70 / rc=2pass / mbtree=0 / bitrate=7731 / ratetol=1.0 / qcomp=0.81 / qpmin=0 / qpmax=69 / qpstep=4 / cplxblur=20.0 / qblur=0.5 / vbv_maxrate=50000 / vbv_bufsize=62500 / nal_hrd=none / filler=0 / ip_ratio=1.40 / pb_ratio=1.30 / aq=3:0.90Language : EnglishDefault : YesForced : NoColor primaries : BT.709Transfer characteristics : BT.709Matrix coefficients : BT.709
Audio #1ID : 2Format : AC-3Format/Info : Audio Coding 3Mode extension : CM (complete main)Format settings, Endianness : BigCodec ID : A_AC3Duration : 1h 25mnBit rate mode : ConstantBit rate : 448 KbpsChannel(s) : 6 channelsChannel positions : Front: L C R, Side: L R, LFESampling rate : 48.0 KHzBit depth : 16 bitsCompression mode : LossyStream size : 273 MiB (5%)Title : AC3, 6 ch, 48 kHz, 448 kbps - ДубляжLanguage : RussianDefault : YesForced : No
Audio #2ID : 3Format : DTSFormat/Info : Digital Theater SystemsMode : 16Format settings, Endianness : BigCodec ID : A_DTSDuration : 1h 25mnBit rate mode : ConstantBit rate : 1 509 KbpsChannel(s) : 6 channelsChannel positions : Front: L C R, Side: L R, LFESampling rate : 48.0 KHzBit depth : 16 bitsCompression mode : LossyStream size : 921 MiB (16%)Title : DTS / 5.1 / 48 kHz / 1509 kbps / 16 bit - OriginalLanguage : EnglishDefault : NoForced : No
Text #1ID : 4Format : UTF-8Codec ID : S_TEXT/UTF8Codec ID/Info : UTF-8 Plain TextTitle : SRT, FullLanguage : EnglishDefault : NoForced : No
Text #2ID : 5Format : UTF-8Codec ID : S_TEXT/UTF8Codec ID/Info : UTF-8 Plain TextTitle : SRT, (SDH)Language : EnglishDefault : NoForced : No
Text #3ID : 6Format : UTF-8Codec ID : S_TEXT/UTF8Codec ID/Info : UTF-8 Plain TextTitle : SRT, FullLanguage : SpanishDefault : NoForced : No
Menu00:00:00.000 : en:1. Khumba00:07:02.881 : en:2. Things Are Different00:14:33.623 : en:3. The Same Skin00:24:04.485 : en:4. Phango00:30:51.933 : en:5. Momma V and Bradley00:38:02.489 : en:6. Teamwork00:45:18.507 : en:7. New Friends00:50:56.345 : en:8. Don't Look Back00:55:26.865 : en:9. Into the Wild01:00:10.857 : en:10. Phango's Trap01:09:02.305 : en:11. At Last01:19:12.790 : en:12. Ending Credits

Скриншоты

Скриншот с названием мультфильма
--BDRip 1080p


Source Blu-Ray

Релиз от групп | and | -Данный релиз не будет воспроизводиться на бытовых плеерах не поддерживающих MKV и H.264Обсуждение релизов в AVC формате || Свежие AVC рипы

_________________
Показать сообщения:    

Текущее время: Сегодня 22:53

Часовой пояс: GMT



Вы не можете начинать темы
Вы не можете отвечать на сообщения
Вы не можете редактировать свои сообщения
Вы не можете удалять свои сообщения
Вы не можете голосовать в опросах
Вы не можете прикреплять файлы к сообщениям
Вы не можете скачивать файлы