Ивановский Торрент трекер
Яндекс.Погода
 

[Цитировать]
HUNTER

Кэрри / Carrie
Год выпуска: 1976
Страна: США
Жанр: ужасы, триллер
Продолжительность: 01:38:11
Перевод №1: профессиональный многоголосый закадровый (НТВ-Плюс)
Перевод №2: профессиональный многоголосый закадровый (Варус Видео)
Перевод №3: профессиональный многоголосый закадровый
Перевод №4: авторский одноголосный закадровый (Сергей Визгунов)
Перевод №5: авторский одноголосный закадровый (Юрий Живов)
Перевод №6: авторский одноголосный закадровый (Алексей Михалёв)
Перевод №7: одноголосный закадровый (D.F.V.)
Cубтитры: русские, английские
Оригинальная аудиодорожка: английская
Оглавление: 32 англоязычные главы
Режиссёр: Брайан Де Пальма /Brian De Palma/
В ролях: Сисси Спейсек /Sissy Spacek/, Пайпер Лори /Piper Laurie/, Эми Ирвинг /Amy Irving/, Уильям Кэтт /William Katt/, Джон Траволта /John Travolta/, Нэнси Аллен /Nancy Allen/, Бетти Бакли /Betty Buckley/, П.Дж. Соулз /P.J. Soles/, Присцилла Пойнтер /Priscilla Pointer/, Сидни Лэссик /Sydney Lassick/
Описание:
Тихую, робкую и доверчивую Кэрри третируют и обижают в школе и дома. Ребенок, от природы добрый, становится замкнутым и мрачным.
В то же время девочка открывает в себе странные и страшные силы… А сверстники готовят очередную изощренную шутку над Кэрри, даже не подозревая, чем это для них закончится…
Дополнительная информация:
IMDB User Rating→: 7.4/10 (114,341 votes)
Рейтинг фильма КиноПоиск.Ru→: 7.199 (15 408 голосов)
  • Перевод НТВ-Плюс родом с BD CEE;
  • За оцифровку дорожки с переводом Варус Видео спасибо Fikaloid, работа со звуком — Stuey;
  • Качество дорожки с переводом Михалёва оставляет желать много лучшего. Если у кого-то есть более качественная оцифровка, просьба поделиться.
    Качество: BDRip (by TBB)
    Контейнер: MKV
    Видеопоток: 1280x694p, 23.976 fps, x264 ~9220 kbps
    Аудиопоток №1 (RUS): DD 1.0, 48 kHz, 640 kbps | профессиональный многоголосый закадровый (НТВ-Плюс)
    Аудиопоток №2 (RUS): DD 2.0, 48 kHz, 192 kbps | профессиональный многоголосый закадровый (Варус Видео)
    Аудиопоток №3 (RUS): DD 2.0, 48 kHz, 192 kbps | профессиональный многоголосый закадровый
    Аудиопоток №4 (RUS): DD 5.1, 48 kHz, 640 kbps | авторский одноголосный закадровый (Сергей Визгунов)
    Аудиопоток №5 (RUS): DD 5.1, 48 kHz, 384 kbps | авторский одноголосный закадровый (Юрий Живов)
    Аудиопоток №6 (RUS): DD 2.0, 48 kHz, 192 kbps | авторский одноголосный закадровый (Алексей Михалёв)
    Аудиопоток №7 (RUS): DD 5.1, 48 kHz, 640 kbps | одноголосный закадровый (D.F.V.)
    Аудиопоток №8 (ENG): DD 5.1, 48 kHz, 640 kbps
    Субтитры №1 (RUS): SRT/UTF8 | BD CEE
    Субтитры №2 (ENG): SRT/UTF8
    Субтитры №3 (ENG): SRT/UTF8 | SDH
    Сэмпл: Яндекс.Диск→, multi-up→, nekaka→, sendspace→

    x264 Log

    Код:
    x264 [info]: frame I:761   Avg QP:16.79  size:111170
    x264 [info]: frame P:25586 Avg QP:17.97  size: 74085
    x264 [info]: frame B:114893 Avg QP:20.16  size: 41854

    MediaInfo

    Код:
    General
    Unique ID                                : 182750735471330017077921014019994221201 (0x897C82E9D1CB1617B4E692265A9CFA91)
    Complete name                            : Carrie.1976.720p.BDRip.x264.DD.SRT-TBB.mkv
    Format                                   : Matroska
    Format version                           : Version 4 / Version 2
    File size                                : 8.74 GiB
    Duration                                 : 1h 38mn
    Overall bit rate                         : 12.7 Mbps
    Movie name                               : Carrie (1976) 720p BDRip by TBB
    Encoded date                             : UTC 2015-07-19 12:57:51
    Writing application                      : mkvmerge v7.8.0 ('River Man') 64bit built on Mar 27 2015 16:31:37
    Writing library                          : libebml v1.3.1 + libmatroska v1.4.2
    DURATION                                 : 01:37:25.048000000
    NUMBER_OF_FRAMES                         : 749
    NUMBER_OF_BYTES                          : 49051
    _STATISTICS_WRITING_APP                  : mkvmerge v7.8.0 ('River Man') 64bit built on Mar 27 2015 16:31:37
    _STATISTICS_WRITING_DATE_UTC             : 2015-07-19 12:57:51
    _STATISTICS_TAGS                         : BPS DURATION NUMBER_OF_FRAMES NUMBER_OF_BYTES
    Video
    ID                                       : 1
    Format                                   : AVC
    Format/Info                              : Advanced Video Codec
    Format profile                           : High@L4.1
    Format settings, CABAC                   : Yes
    Format settings, ReFrames                : 9 frames
    Codec ID                                 : V_MPEG4/ISO/AVC
    Duration                                 : 1h 38mn
    Bit rate                                 : 8 970 Kbps
    Width                                    : 1 280 pixels
    Height                                   : 694 pixels
    Display aspect ratio                     : 1.85:1
    Frame rate mode                          : Constant
    Frame rate                               : 23.976 fps
    Color space                              : YUV
    Chroma subsampling                       : 4:2:0
    Bit depth                                : 8 bits
    Scan type                                : Progressive
    Bits/(Pixel*Frame)                       : 0.421
    Stream size                              : 6.15 GiB (70%)
    Title                                    : 1280x694, 23.976 fps, x264 ~9220 kbps
    Writing library                          : x264 core 140 r2377 1ca7bb9
    Encoding settings                        : cabac=1 / ref=9 / deblock=1:-3:-3 / analyse=0x3:0x113 / me=umh / subme=11 / psy=1 / psy_rd=1.17:0.00 / mixed_ref=1 / me_range=64 / chroma_me=1 / trellis=2 / 8x8dct=1 / cqm=0 / deadzone=21,11 / fast_pskip=0 / chroma_qp_offset=-2 / threads=12 / lookahead_threads=3 / sliced_threads=0 / nr=0 / decimate=1 / interlaced=0 / bluray_compat=0 / constrained_intra=0 / bframes=10 / b_pyramid=2 / b_adapt=2 / b_bias=0 / direct=3 / weightb=1 / open_gop=0 / weightp=2 / keyint=250 / keyint_min=23 / scenecut=40 / intra_refresh=0 / rc=crf / mbtree=0 / crf=17.6 / qcomp=0.65 / qpmin=0 / qpmax=69 / qpstep=4 / ip_ratio=1.40 / pb_ratio=1.30 / aq=2:0.70
    Language                                 : English
    Default                                  : Yes
    Forced                                   : Yes
    DURATION                                 : 01:38:10.885000000
    NUMBER_OF_FRAMES                         : 141240
    NUMBER_OF_BYTES                          : 6788901524
    _STATISTICS_WRITING_APP                  : mkvmerge v7.8.0 ('River Man') 64bit built on Mar 27 2015 16:31:37
    _STATISTICS_WRITING_DATE_UTC             : 2015-07-19 12:57:51
    _STATISTICS_TAGS                         : BPS DURATION NUMBER_OF_FRAMES NUMBER_OF_BYTES
    Audio #1
    ID                                       : 2
    Format                                   : AC-3
    Format/Info                              : Audio Coding 3
    Mode extension                           : CM (complete main)
    Format settings, Endianness              : Big
    Codec ID                                 : A_AC3
    Duration                                 : 1h 38mn
    Bit rate mode                            : Constant
    Bit rate                                 : 640 Kbps
    Channel(s)                               : 1 channel
    Channel positions                        : Front: C
    Sampling rate                            : 48.0 KHz
    Bit depth                                : 16 bits
    Compression mode                         : Lossy
    Stream size                              : 449 MiB (5%)
    Title                                    : RUS MVO НТВ-Плюс DD 1.0, 48 kHz, 640 kbps
    Language                                 : Russian
    Default                                  : Yes
    Forced                                   : No
    Audio #2
    ID                                       : 3
    Format                                   : AC-3
    Format/Info                              : Audio Coding 3
    Mode extension                           : CM (complete main)
    Format settings, Endianness              : Big
    Codec ID                                 : A_AC3
    Duration                                 : 1h 38mn
    Bit rate mode                            : Constant
    Bit rate                                 : 192 Kbps
    Channel(s)                               : 2 channels
    Channel positions                        : Front: L R
    Sampling rate                            : 48.0 KHz
    Bit depth                                : 16 bits
    Compression mode                         : Lossy
    Stream size                              : 135 MiB (2%)
    Title                                    : RUS MVO Варус Видео DD 2.0, 48 kHz, 192 kbps
    Language                                 : Russian
    Default                                  : No
    Forced                                   : No
    Audio #3
    ID                                       : 4
    Format                                   : AC-3
    Format/Info                              : Audio Coding 3
    Mode extension                           : CM (complete main)
    Format settings, Endianness              : Big
    Codec ID                                 : A_AC3
    Duration                                 : 1h 38mn
    Bit rate mode                            : Constant
    Bit rate                                 : 192 Kbps
    Channel(s)                               : 2 channels
    Channel positions                        : Front: L R
    Sampling rate                            : 48.0 KHz
    Bit depth                                : 16 bits
    Compression mode                         : Lossy
    Stream size                              : 135 MiB (2%)
    Title                                    : RUS MVO DD 2.0, 48 kHz, 192 kbps
    Language                                 : Russian
    Default                                  : No
    Forced                                   : No
    Audio #4
    ID                                       : 5
    Format                                   : AC-3
    Format/Info                              : Audio Coding 3
    Mode extension                           : CM (complete main)
    Format settings, Endianness              : Big
    Codec ID                                 : A_AC3
    Duration                                 : 1h 38mn
    Bit rate mode                            : Constant
    Bit rate                                 : 640 Kbps
    Channel(s)                               : 6 channels
    Channel positions                        : Front: L C R, Side: L R, LFE
    Sampling rate                            : 48.0 KHz
    Bit depth                                : 16 bits
    Compression mode                         : Lossy
    Stream size                              : 449 MiB (5%)
    Title                                    : RUS AVO С.Визгунов DD 5.1, 48 kHz, 640 kbps
    Language                                 : Russian
    Default                                  : No
    Forced                                   : No
    Audio #5
    ID                                       : 6
    Format                                   : AC-3
    Format/Info                              : Audio Coding 3
    Mode extension                           : CM (complete main)
    Format settings, Endianness              : Big
    Codec ID                                 : A_AC3
    Duration                                 : 1h 38mn
    Bit rate mode                            : Constant
    Bit rate                                 : 384 Kbps
    Channel(s)                               : 6 channels
    Channel positions                        : Front: L C R, Side: L R, LFE
    Sampling rate                            : 48.0 KHz
    Bit depth                                : 16 bits
    Compression mode                         : Lossy
    Stream size                              : 270 MiB (3%)
    Title                                    : RUS AVO Ю.Живов DD 5.1, 48 kHz, 384 kbps
    Language                                 : Russian
    Default                                  : No
    Forced                                   : No
    Audio #6
    ID                                       : 7
    Format                                   : AC-3
    Format/Info                              : Audio Coding 3
    Mode extension                           : CM (complete main)
    Format settings, Endianness              : Big
    Codec ID                                 : A_AC3
    Duration                                 : 1h 38mn
    Bit rate mode                            : Constant
    Bit rate                                 : 192 Kbps
    Channel(s)                               : 2 channels
    Channel positions                        : Front: L R
    Sampling rate                            : 48.0 KHz
    Bit depth                                : 16 bits
    Compression mode                         : Lossy
    Stream size                              : 135 MiB (2%)
    Title                                    : RUS AVO А.Михалёв DD 2.0, 48 kHz, 192 kbps
    Language                                 : Russian
    Default                                  : No
    Forced                                   : No
    Audio #7
    ID                                       : 8
    Format                                   : AC-3
    Format/Info                              : Audio Coding 3
    Mode extension                           : CM (complete main)
    Format settings, Endianness              : Big
    Codec ID                                 : A_AC3
    Duration                                 : 1h 38mn
    Bit rate mode                            : Constant
    Bit rate                                 : 640 Kbps
    Channel(s)                               : 6 channels
    Channel positions                        : Front: L C R, Side: L R, LFE
    Sampling rate                            : 48.0 KHz
    Bit depth                                : 16 bits
    Compression mode                         : Lossy
    Stream size                              : 449 MiB (5%)
    Title                                    : RUS VO D.F.V. DD 5.1, 48 kHz, 640 kbps
    Language                                 : Russian
    Default                                  : No
    Forced                                   : No
    Audio #8
    ID                                       : 9
    Format                                   : AC-3
    Format/Info                              : Audio Coding 3
    Mode extension                           : CM (complete main)
    Format settings, Endianness              : Big
    Codec ID                                 : A_AC3
    Duration                                 : 1h 38mn
    Bit rate mode                            : Constant
    Bit rate                                 : 640 Kbps
    Channel(s)                               : 6 channels
    Channel positions                        : Front: L C R, Side: L R, LFE
    Sampling rate                            : 48.0 KHz
    Bit depth                                : 16 bits
    Compression mode                         : Lossy
    Stream size                              : 449 MiB (5%)
    Title                                    : ENG DD 5.1, 48 kHz, 640 kbps
    Language                                 : English
    Default                                  : No
    Forced                                   : No
    Text #1
    ID                                       : 10
    Format                                   : UTF-8
    Codec ID                                 : S_TEXT/UTF8
    Codec ID/Info                            : UTF-8 Plain Text
    Title                                    : RUS BD CEE SRT
    Language                                 : Russian
    Default                                  : No
    Forced                                   : No
    Text #2
    ID                                       : 11
    Format                                   : UTF-8
    Codec ID                                 : S_TEXT/UTF8
    Codec ID/Info                            : UTF-8 Plain Text
    Title                                    : ENG SRT
    Language                                 : English
    Default                                  : No
    Forced                                   : No
    Text #3
    ID                                       : 12
    Format                                   : UTF-8
    Codec ID                                 : S_TEXT/UTF8
    Codec ID/Info                            : UTF-8 Plain Text
    Title                                    : ENG SDH SRT
    Language                                 : English
    Default                                  : No
    Forced                                   : No
    Menu
    00:00:00.000                             : en:The Shower
    00:06:44.987                             : en:It's Carrie
    00:09:15.346                             : en:Creepy Carie
    00:09:52.258                             : en:Mrs. White Visits
    00:12:27.455                             : en:Carrie's Sins
    00:16:42.918                             : en:The Mirror
    00:19:07.604                             : en:Beautiful Poem
    00:21:29.788                             : en:The Punishment
    00:25:34.866                             : en:1-2-3-4
    00:26:49.733                             : en:Telekinesis
    00:29:19.382                             : en:The Favour
    00:30:08.973                             : en:Heatwave
    00:33:03.523                             : en:Billy
    00:35:48.271                             : en:The Pep Talk
    00:39:06.177                             : en:Why?
    00:41:32.740                             : en:Acceptance
    00:45:02.866                             : en:No! No! No!
    00:48:28.572                             : en:The Bucket
    00:49:42.396                             : en:Everbody's Talkin'
    00:53:03.763                             : en:All Gonna Laugh
    00:55:32.287                             : en:Are You Scared?
    00:58:46.064                             : en:First Dance
    01:05:30.134                             : en:Election
    01:07:58.199                             : en:Switcheroo
    01:10:12.958                             : en:King & Queen
    01:13:14.306                             : en:Blood
    01:16:44.850                             : en:Revenge
    01:20:49.928                             : en:Road Rage
    01:21:40.979                             : en:The Devil
    01:28:36.227                             : en:Sacrifice
    01:33:41.866                             : en:The Final Grab
    01:36:50.304                             : en:End Credits

    Скриншоты


    Source vs. TBB


  • 0 человек читают эту тему: 0 пользователей, 0 скрытых пользователей, 0 гостей

    Показать сообщения:    

    Текущее время: 23-Авг 13:04

    Часовой пояс: UTC - 1


    Вы не можете начинать темы
    Вы не можете отвечать на сообщения
    Вы не можете редактировать свои сообщения
    Вы не можете удалять свои сообщения
    Вы не можете голосовать в опросах
    Вы не можете прикреплять файлы к сообщениям
    Вы не можете скачивать файлы

    !ВНИМАНИЕ!
    Сайт не предоставляет электронные версии произведений, а занимается лишь коллекционированием и каталогизацией ссылок, присылаемых и публикуемых на форуме нашими читателями. Если вы являетесь правообладателем какого-либо представленного материала и не желаете, чтобы ссылка на него находилась в нашем каталоге, свяжитесь с нами, и мы незамедлительно удалим ее. Файлы для обмена на трекере предоставлены пользователями сайта, и администрация не несет ответственности за их содержание. Просьба не заливать файлы, защищенные авторскими правами, а также файлы нелегального содержания!