Важное объявление!
У Нас Все раздачи мультитрекерные, при нуле пиров в релизах, можете смело вставать на закачку!
 
Автор Сообщение

HUNTER

Стаж:
4 года 6 месяцев
Сообщений:
60994

Репутация: 101

[+] [-]
Вне форума [Профиль] [ЛС]

Ку! Кин-дза-дза
Год выпуска: 2013
Страна: Россия
Жанр: мультфильм, фантастика, комедия
Продолжительность: 01:36:27
Перевод: не требуется
русские субтитры: нет- Режиссёр: Георгий Данелия, Татьяна Ильина- Роли озвучивали: Николай Губенко, Иван Цехмистренко, Андрей Леонов, Алексей Колган, Александр Адабашьян, Георгий Данелия, Игорь Кваша, Вахтанг Кикабидзе, Галина Данелия-Юркова, Полина Кутепова- Описание: Начинающий диджей Толик и всемирно известный виолончелист Владимир Чижов встречают на шумной московской улице босого человека. Нажав на кнопку странной машинки, герои перемещаются на пустынную планету Плюк. Анимационный ремейк любимого всеми фильма «Кин-дза-дза!» не менее увлекательно и смешно, чем оригинал, рассказывает о приключениях Толика и дяди Вовы. В этом мире песка жители делятся на две категории — пацаков и чатлан, простая спичка обладает невероятной ценностью, а людей встречают и провожают по цвету штанов.- раздача от: - Качество: BDRip 1080p
Формат: MKV
Видео кодек: AVC
Аудио кодек: DTS
Видео: 1920x1080, 23.976 fps, ~5000 kbps avg, 0.101 bit/pixel
Аудио: 48 kHz, 6 ch, ~1510 kbps
субтитры: английские
навигация по главам: 16 глав-

Знаете ли вы, что...

- Андрей Леонов озвучивает Уэфа, которого в оригинальной картине сыграл его отец Евгений Леонов.
- Мультфильм был запущен в производство 12 февраля 2005 года. Работа над картиной затянулась из-за прекращения финансирования в конце 2008 года и последовавших судебных разбирательств. Фильм был закончен в 2012 году благодаря распоряжению Правительства РФ Министерству культуры. Актер, который озвучил Толика, за время съёмок успел закончить школу, уйти в армию и вернуться из неё.

MediaInfo

Log

x264 [info]: frame I:1300 Avg QP:13.53 size:205695
x264 [info]: frame P:31702 Avg QP:16.77 size: 57356
x264 [info]: frame B:105750 Avg QP:17.28 size: 14463
Общее
Уникальный идентификатор : 243743477361921521306169696399720330250 (0xB75F49431857472DAA4288E4C326340A)
Полное имя : D:\Ку! Кин-дза-дза\Ku! Kin-dza-dza.2013.BDRip 1080p.mkv
Формат : Matroska
Версия формата : Version 4 / Version 2
Размер файла : 4,39 Гбайт
Продолжительность : 1 ч. 36 м.
Общий поток : 6509 Кбит/сек
Название фильма : Ku! Kin-dza-dza (2013) by Killbrain
Дата кодирования : UTC 2013-07-10 18:00:27
Программа кодирования : mkvmerge v6.1.0 ('Old Devil') built on Mar 2 2013 14:32:37
Библиотека кодирования : libebml v1.3.0 + libmatroska v1.4.0
Видео
Идентификатор : 1
Формат : AVC
Формат/Информация : Advanced Video Codec
Профиль формата : High@L4.1
Параметр CABAC формата : Да
Параметр ReFrames формата : 4 кадра
Идентификатор кодека : V_MPEG4/ISO/AVC
Продолжительность : 1 ч. 36 м.
Битрейт : 5000 Кбит/сек
Ширина : 1920 пикселей
Высота : 1080 пикселей
Соотношение сторон : 16:9
Частота кадров : 23,976 кадра/сек
Цветовое пространство : YUV
Субдискретизация насыщенности : 4:2:0
Битовая глубина : 8 бит
Тип развёртки : Прогрессивная
Бит/(Пиксели*Кадры) : 0.101
Размер потока : 3,28 Гбайт (75%)
Заголовок : Ku! Kin-dza-dza (2013)
Библиотека кодирования : x264 core 132 r2310 76a5c3a
Настройки программы : cabac=1 / ref=4 / deblock=1:-1:-1 / analyse=0x3:0x113 / me=umh / subme=10 / psy=1 / psy_rd=1.00:0.40 / mixed_ref=1 / me_range=16 / chroma_me=1 / trellis=2 / 8x8dct=1 / cqm=0 / deadzone=21,11 / fast_pskip=0 / chroma_qp_offset=-4 / threads=3 / lookahead_threads=1 / sliced_threads=0 / nr=0 / decimate=0 / interlaced=0 / bluray_compat=0 / constrained_intra=0 / bframes=6 / b_pyramid=2 / b_adapt=2 / b_bias=0 / direct=3 / weightb=1 / open_gop=0 / weightp=2 / keyint=240 / keyint_min=24 / scenecut=40 / intra_refresh=0 / rc_lookahead=60 / rc=2pass / mbtree=0 / bitrate=5000 / ratetol=1.0 / qcomp=0.65 / qpmin=0 / qpmax=69 / qpstep=4 / cplxblur=20.0 / qblur=0.5 / vbv_maxrate=40000 / vbv_bufsize=30000 / nal_hrd=none / ip_ratio=1.40 / pb_ratio=1.30 / aq=1:0.80
Язык : Russian
Default : Да
Forced : Нет
Аудио
Идентификатор : 2
Формат : DTS
Формат/Информация : Digital Theater Systems
Идентификатор кодека : A_DTS
Продолжительность : 1 ч. 36 м.
Вид битрейта : Постоянный
Битрейт : 1510 Кбит/сек
Каналы : 6 каналов
Расположение каналов : Front: L C R, Side: L R, LFE
Частота : 48,0 КГц
Битовая глубина : 16 бит
Метод сжатия : С потерями
Размер потока : 1,02 Гбайт (23%)
Default : Да
Forced : Нет
Текст
Идентификатор : 3
Формат : UTF-8
Идентификатор кодека : S_TEXT/UTF8
Идентификатор кодека/Информация : UTF-8 Plain Text
Заголовок : Full, BD3D RUS
Язык : English
Default : Нет
Forced : Нет
Меню
00:00:00.000 : :Chapter 01
00:06:27.678 : :Chapter 02
00:11:31.273 : :Chapter 03
00:15:58.540 : :Chapter 04
00:20:26.016 : :Chapter 05
00:27:15.091 : :Chapter 06
00:32:28.655 : :Chapter 07
00:39:43.672 : :Chapter 08
00:48:43.879 : :Chapter 09
00:56:26.132 : :Chapter 10
01:00:42.639 : :Chapter 11
01:07:32.423 : :Chapter 12
01:15:52.381 : :Chapter 13
01:21:46.276 : :Chapter 14
01:27:33.998 : :Chapter 15
01:33:13.754 : :Chapter 16

_________________
Показать сообщения:    

Текущее время: Сегодня 19:23

Часовой пояс: GMT



Вы не можете начинать темы
Вы не можете отвечать на сообщения
Вы не можете редактировать свои сообщения
Вы не можете удалять свои сообщения
Вы не можете голосовать в опросах
Вы не можете прикреплять файлы к сообщениям
Вы не можете скачивать файлы
Наши партнеры: интернет магазин Ивановского трикотажа textilla.ru