Ивановский Торрент трекер
Яндекс.Погода
 

[Цитировать]
HUNTER

Кучипуди - классический индийский танец. Фильм 1-2 / Особенности стиля. Великие гуру-
Год выпуска: 2008
Страна: Россия
Сайт производителя: отсутствует
Тематика: танцы
Тип материала: обучающее видео-Продолжительность: 02:25:00
Автор: Элеонора Леванская-Язык: Русский
Субтитры: отсутствуют-Описание: Трудно найти более жизнерадостную и солнечную музыку, чем индийские
танцы.
Эти мелодии заряжают энергией, позитивом, под них хочется танцевать и
наслаждаться каждым прожитым днем. Всему этому уставшие от работы, забот и морозов жители России смогут научиться, приобретя на двух DVD специальную программу "Кучипуди", которая обучит классическому индийскому танцу. Курс "Кучипуди" построен таким образом, что зрители научатся специальной танцевальной разминке, смогут петь и делать руками красивейшие движения, в которых передается содержание танца.
Также будут даны основные базовые движения и связки индийского танца. Помимо этого зритель узнает об истории возникновения "Кучипуди", о его великих учителях и увидит уникальные кадры из Мадрасской академии искусств.
-Качество: DVDRip
Формат: AVI
Видео кодек: DivX
Аудио кодек: MP3
Видео: 720x416 (1.73:1), 25 fps, DivX Codec 5.2.1 build 1338 ~2187 kbps avg, 0.29 bit/pixel
Аудио: 48 kHz, MPEG Layer 3, 2 ch, ~106.87 kbps avg-

MediaInfo

Код: copyText_writeLink('this.parentNode.parentNode.nextSibling.nextSibling'); General
Complete name : E:\Обучение\Кучипуди - классический индийский танец\Kychipydi._Klassicheskii_Indiiskii_Tanec._Film_1.avi
Format : AVI
Format/Info : Audio Video Interleave
File size : 1.37 GiB
Duration : 1h 24mn
Overall bit rate mode : Variable
Overall bit rate : 2 308 Kbps
Writing application : VirtualDubMod 1.5.4.1 (build 2178/release)
Writing library : VirtualDubMod build 2178/release
Video
ID : 0
Format : MPEG-4 Visual
Format settings, BVOP : No
Format settings, QPel : No
Format settings, GMC : No warppoints
Format settings, Matrix : Default (H.263)
Codec ID : DX50
Codec ID/Hint : DivX 5
Duration : 1h 24mn
Bit rate : 2 188 Kbps
Width : 720 pixels
Height : 416 pixels
Display aspect ratio : 1.731
Frame rate : 25.000 fps
Color space : YUV
Chroma subsampling : 4:2:0
Bit depth : 8 bits
Scan type : Progressive
Compression mode : Lossy
Bits/(Pixel*Frame) : 0.292
Stream size : 1.30 GiB (95%)
Writing library : DivX 5.2.1 (DrDivX 106) (UTC 2004-09-08)
Audio
ID : 1
Format : MPEG Audio
Format version : Version 1
Format profile : Layer 3
Mode : Joint stereo
Mode extension : MS Stereo
Codec ID : 55
Codec ID/Hint : MP3
Duration : 1h 24mn
Bit rate mode : Variable
Bit rate : 107 Kbps
Nominal bit rate : 128 Kbps
Channel(s) : 2 channels
Sampling rate : 48.0 KHz
Compression mode : Lossy
Stream size : 64.9 MiB (5%)
Alignment : Aligned on interleaves
Interleave, duration : 24 ms (0.60 video frame)
Interleave, preload duration : 172 ms
Writing library : LAME3.97
Encoding settings : -m j -V 4 -q 2 -lowpass 17 --abr 128
- -


Показать сообщения:    

Текущее время: 13-Дек 17:10

Часовой пояс: UTC ± 0


Вы не можете начинать темы
Вы не можете отвечать на сообщения
Вы не можете редактировать свои сообщения
Вы не можете удалять свои сообщения
Вы не можете голосовать в опросах
Вы не можете прикреплять файлы к сообщениям
Вы не можете скачивать файлы

!ВНИМАНИЕ!
Сайт не предоставляет электронные версии произведений, а занимается лишь коллекционированием и каталогизацией ссылок, присылаемых и публикуемых на форуме нашими читателями. Если вы являетесь правообладателем какого-либо представленного материала и не желаете, чтобы ссылка на него находилась в нашем каталоге, свяжитесь с нами, и мы незамедлительно удалим ее. Файлы для обмена на трекере предоставлены пользователями сайта, и администрация не несет ответственности за их содержание. Просьба не заливать файлы, защищенные авторскими правами, а также файлы нелегального содержания!