Ивановский Торрент трекер
Яндекс.Погода
 

[Цитировать]
HUNTER

Курская битва. И плавилась броня
Год выпуска: 2013
Страна: Россия
Жанр: история ВОВ
Продолжительность: 00:49:44
Перевод: Не требуется
Русские субтитры: нет
Режиссер: Людмила Снигирeва
Описание: Фильм посвящен 70-летию битвы на Курской дуге.
В основе фильма события, связанные с величайшим сражением под Курском: 50 дней и ночей непрерывной схватки.
Четыре миллиона человек, шесть тысяч танков, четыре тысячи самолетов сошлись на узкой полосе выжженной земли длинной 500 километров. История сражения показана в фильме глазами ее участников: танкистов, летчиков, артиллеристов, пехоты, медсестер и генералов. А также мирных жителей, многие из которых внезапно оказались на линии огня и чудом остались жить.
Продюсеры: Данила Шарапов, Олег Вольнов
Автор сценария: Екатерина Алябьева
качество: SATRip
формат: AVI
Видео: 720x416 (1.73:1), 25 fps, XviD MPEG-4 ~1645 kbps avg, 0.22 bit/pixel
Аудио: 48 kHz, MPEG Layer 3, 2 ch, ~128.00 kbps avg

MediaInfo

Формат : AVI
Формат/Информация : Audio Video Interleave
Размер файла : 634 Мбайт
Продолжительность : 49 м.
Общий поток : 1783 Кбит/сек
Библиотека кодирования : VirtualDub build 34670/release
Видео
Идентификатор : 0
Формат : MPEG-4 Visual
Профиль формата : Advanced Simple@L5
Параметр BVOP формата : 2
Параметр QPel формата : Нет
Параметр GMC формата : Без точки перехода
Параметр матрицы формата : Default (MPEG)
Режим смешивания : Сжатый битовый поток
Идентификатор кодека : XVID
Идентификатор кодека/Подсказка : XviD
Продолжительность : 49 м.
Битрейт : 1645 Кбит/сек
Ширина : 720 пикселей
Высота : 416 пикселей
Соотношение сторон : 1,731
Частота кадров : 25,000 кадров/сек
Цветовое пространство : YUV
Субдискретизация насыщенности : 4:2:0
Битовая глубина : 8 бит
Тип развёртки : Прогрессивная
Метод сжатия : С потерями
Бит/(Пиксели*Кадры) : 0.220
Размер потока : 585 Мбайт (92%)
Библиотека кодирования : XviD 64
Аудио
Идентификатор : 1
Формат : MPEG Audio
Версия формата : Version 1
Профиль формата : Layer 3
Режим : Joint stereo
Расширение режима : MS Stereo
Идентификатор кодека : 55
Идентификатор кодека/Подсказка : MP3
Продолжительность : 49 м.
Вид битрейта : Постоянный
Битрейт : 128 Кбит/сек
Каналы : 2 канала
Частота : 48,0 КГц
Метод сжатия : С потерями
Размер потока : 45,5 Мбайт (7%)
Выравнивание : Разделение по промежуткам
Продолжительность промежутка : 40 мс. (1,00 видеокадр)
Время предзагрузки промежутка : 500 мс.

Скриншоты



Показать сообщения:    

Текущее время: 16-Дек 07:24

Часовой пояс: UTC ± 0


Вы не можете начинать темы
Вы не можете отвечать на сообщения
Вы не можете редактировать свои сообщения
Вы не можете удалять свои сообщения
Вы не можете голосовать в опросах
Вы не можете прикреплять файлы к сообщениям
Вы не можете скачивать файлы

!ВНИМАНИЕ!
Сайт не предоставляет электронные версии произведений, а занимается лишь коллекционированием и каталогизацией ссылок, присылаемых и публикуемых на форуме нашими читателями. Если вы являетесь правообладателем какого-либо представленного материала и не желаете, чтобы ссылка на него находилась в нашем каталоге, свяжитесь с нами, и мы незамедлительно удалим ее. Файлы для обмена на трекере предоставлены пользователями сайта, и администрация не несет ответственности за их содержание. Просьба не заливать файлы, защищенные авторскими правами, а также файлы нелегального содержания!