Ивановский Торрент трекер
Яндекс.Погода
 

[Цитировать]
HUNTER

Курская битва. Время побеждать
Год выпуска: 2013
Страна: Россия
Выпущено: Кинокомпания "АРГО"
Жанр: Документальный, история, военный
Продолжительность: 8 x ~ 00:38:00
Перевод: Не требуется
Русские субтитры: нет

Режиссер: Александр Беланов
Описание: Новый восьмисерийный фильм «Курская битва. Время побеждать» расскажет о том, как после победы под Сталинградом, после унизительного отступления и тяжёлых, кровопролитных боёв советские солдаты впервые почувствовали: мы научились воевать, мы переломили ход войны и перешли в наступление, погнали немецко-фашистских захватчиков с нашей родной русской земли...
1. Операция "Цитадель". 12 апреля 1943 года Гитлер утвердил план операции "Цитадель" с целью окружения войск Красной армии на "Курском балконе". Успех "Цитадели" должен был целиком изменить ситуацию на Восточном фронте. Это была попытка реванша за Сталинградскую катастрофу. Но очень скоро и замысел, и детали операции "Цитадель" стали известны в Москве. Эти данные были получены советской разведкой. И если можно говорить о том, что Зорге, образно выражаясь, выиграл битву за Москву, то "Вертер" - существенно повлиял на ход и исход Курского сражения, которое стало поворотным пунктом всей войны. Но ещё 8 апреля, опираясь на данные разведывательных органов фронтов курского направления, Георгий Жуков весьма точно предсказал силу и направление немецких ударов по Курской дуге...
2. Разменная монета фюрера. После поражения под Москвой, а затем и в Сталинградской битве доверие к военным со стороны политического руководства Германии и лично Гитлера заметно пошатнулось. После того как в декабре 1941 года фюрер отправил в отставку ряд высокопоставленных генералов и сам встал у руля Вермахта, сложная и в то же время четкая система планирования и управления в армии начала постепенно рушиться. Командующий группой армий "Юг" Манштейн разработал замысловатый план с наступлением Четвертой танковой армии, группы "Кемпф" под небольшим углом друг к другу, то есть их удары наносились не параллельно, а под небольшим углом, что должно было, по замыслу Манштейна, обеспечить защиту ударной группировки. Что решил делать Гитлер? И как его решения повлияли на будущий провал всей военной компании.
3. Начало конца. В нашей историографии традиционно датой начала битвы на Огненной дуге считается вторник 5 июля 1943 года, так как в этот день началось общее наступление групп армий "Юг" и "Центр". Ряд зарубежных исследователей придерживаются иной точки зрения. Они согласны с генералами вермахта, которые ведут отсчет с 4 июля. Почему? Именно в этот день командующий 4-й танковой армии генерал-полковник Герман Гот отдал приказ командиру 48-го танкового корпуса генералу фон Кнобельсдорфу овладеть позициями боевого охранения и передовых отрядов войск правого крыла 6-й гвардейской армии. Эти рубежи по плану операции были определены как исходные позиции дивизий его корпуса для наступления 5 июля.
4. Контрудар, отмененный Сталиным. Генералы и маршалы, непосредственно участвовавшие в битве, долгие годы обходили молчанием тяжелую ситуацию, которая сложилась в течение первых суток в полосе 6-й гвардейской армии, акцентируя внимание на частных моментах или личных переживаниях. И только маршал Жуков писал после войны: "...Несмотря на хорошо организованную оборону, величайшее мужество и массовый героизм наших войск, 6 июля войскам противника ценою больших потерь все же удалось продвинуться на отдельных участках до 10 километров. Невзирая на колоссальные потери, свирепствовала его авиация. Но прорвать тактическую оборону враг так и не смог..." В этой серии мы узнаем, почему генерал Ватутин в своих сообщениях в Ставку занялся приписками, пошёл на прямой обман и подлог? И как телефонный звонок Сталина спас нашу армию от участи частей, оказавшихся в окружении 1941 года...
5. Танковое сражение века. Даже на самой крупномасштабной карте, пожалуй, не отыскать название деревни Прохоровка. В грозные военные дни июля 1943 года она стала одной из самых горячих точек Курской битвы. На участке фронта шириной всего в 8-10 километров под Прохоровкой произошло крупнейшее в истории войн танковое сражение. "12 июля наступил перелом в Курской битве, враг перешёл к обороне, а 16 июля начал отводить свои силы. Войска Воронежского, а с 19 июля и Степного фронта перешли к преследованию и отбросили немецко-фашистские войска на исходный рубеж". Эта цитата из Большой Советской Энциклопедии - на самом деле, кусок переписанной истории, обман, выгодный Никите Хрущёву и военным командирам "украинской группировки"... Почему Г. Жуков критикует действия командующего 5-й танковой армией П. А. Ротмистрова? Почему "главная операция на Курской дуге" прошла мимо внимания мировой прессы, и в будущем никак не отмечалась немецкими историками?
6. Операция "Кутузов". Потеря убитыми и ранеными 20 000 солдат Вермахта только за первый день наступления в полосе войск Центрального фронта сделала, с точки зрения Клюге, неизбежным прекращение операции "Цитадель". Гитлер пошёл на компромисс. 16 июля он позволил Манштейну продолжить наступление по несколько скорректированному плану. Но уже 17 июля Манштейну было приказано приостановить наступление и перебросить дивизии на Орловский плацдарм, где развёртывалась гигантская битва. Началась операция "Кутузов" 5 августа. Войска Брянского фронта при содействии с флангов войск Западного и Центрального фронтов в результате ожесточённых боёв овладели городом Орёл! В тот же день войска Степного и Воронежского фронтов сломили сопротивление противника и освободили город Белгород! В ознаменование одержанных побед 5 августа 1943 года в Москве был произведён первый салют.
7. Партизанские тропы. Готовя операцию "Цитадель", фашистское командование вдалбливало в головы своих солдат, что поражения немецко-фашистской армии под Москвой и под Сталинградом - это, дескать, результат неблагоприятных погодных условий зимы, действия Генерала Мороза, что лето - время побед германской армии. Солдаты гитлеровской армии верили, что в июльском наступлении под Курском они добьются успеха. Не добились! Почему?.. В 7-й серии фильма "Курская битва. Время наступать" мы расскажем о том, как партизанское движение, тыл страны ковали эту победу на Курской дуге. Какой ценой?.. В результате злодеяний, совершённых фашистами, в течение 15 месяцев в Курской области погибло 18.099 мирных жителей, включая женщин, стариков и детей...
8. Операция "Полководец Румянцев". 3 августа 1943 года. 773 день войны. Белгородско-Харьковская операция. Кодовое наименование - "Полководец Румянцев". По замыслу Ставки Верховного Главнокомандующего намечалось смежными флангами войск Воронежского и Степного фронтов рассечь противостоявшую группировку противника на две части. Затем, во взаимодействии с 57-й армией Юго-Западного фронта, охватить основные силы противника с запада, в районе Харькова, и уничтожить их... Вражеская оборона прорывалась мощным ударом войск на стыке Воронежского и Степного фронтов. Основную роль в развитии этого удара играли 1-я и 5-я гвардейская танковые армии Воронежского фронта и два танковых корпуса Степного фронта, наступавших на Харьков с севера. Победа на Курской дуге ознаменовала переход стратегической инициативы к Красной Армии. К моменту стабилизации фронта советские войска вышли на исходные позиции для наступления на Днепр. После окончания этой битвы германское командование утратило возможность проводить стратегические наступательные операции. Пришло наше время - время побеждать!

качество: IPTVRip
формат: AVI
Видео: 704x400 (1.76:1), 25 fps, XviD build 50 ~1491 kbps avg, 0.21 bit/pixel
Аудио: 48 kHz, MPEG Layer 3, 2 ch, ~128.00 kbps avg

MediaInfo

Complete name : 1.Операция Цитадель.avi
Format : AVI
Format/Info : Audio Video Interleave
File size : 442 MiB
Duration : 38mn 15s
Overall bit rate : 1 615 Kbps
Writing application : VirtualDubMod 1.5.10.2 (build 2540/release)
Writing library : VirtualDubMod build 2540/release
Video
ID : 0
Format : MPEG-4 Visual
Format profile : Advanced Simple@L5
Format settings, BVOP : Yes
Format settings, QPel : No
Format settings, GMC : No warppoints
Format settings, Matrix : Default (MPEG)
Codec ID : DX50
Codec ID/Hint : DivX 5
Duration : 38mn 15s
Bit rate : 1 477 Kbps
Width : 704 pixels
Height : 400 pixels
Display aspect ratio : 16:9
Frame rate : 25.000 fps
Resolution : 8 bits
Colorimetry : 4:2:0
Scan type : Progressive
Bits/(Pixel*Frame) : 0.210
Stream size : 404 MiB (91%)
Writing library : XviD 1.2.1 (UTC 2008-12-04)
Audio
ID : 1
Format : MPEG Audio
Format version : Version 1
Format profile : Layer 3
Codec ID : 55
Codec ID/Hint : MP3
Duration : 38mn 15s
Bit rate mode : Constant
Bit rate : 128 Kbps
Channel(s) : 2 channels
Sampling rate : 48.0 KHz
Stream size : 35.0 MiB (8%)
Alignment : Aligned on interleaves
Interleave, duration : 40 ms (1.00 video frame)
Interleave, preload duration : 504 ms
Complete name : 2.Разменная монета фюрера.avi
Format : AVI
Format/Info : Audio Video Interleave
File size : 439 MiB
Duration : 37mn 33s
Overall bit rate : 1 635 Kbps
Writing application : VirtualDubMod 1.5.10.2 (build 2540/release)
Writing library : VirtualDubMod build 2540/release
Video
ID : 0
Format : MPEG-4 Visual
Format profile : Advanced Simple@L5
Format settings, BVOP : Yes
Format settings, QPel : No
Format settings, GMC : No warppoints
Format settings, Matrix : Default (MPEG)
Codec ID : DX50
Codec ID/Hint : DivX 5
Duration : 37mn 33s
Bit rate : 1 498 Kbps
Width : 704 pixels
Height : 400 pixels
Display aspect ratio : 16:9
Frame rate : 25.000 fps
Resolution : 8 bits
Colorimetry : 4:2:0
Scan type : Progressive
Bits/(Pixel*Frame) : 0.213
Stream size : 402 MiB (92%)
Writing library : XviD 1.2.1 (UTC 2008-12-04)
Audio
ID : 1
Format : MPEG Audio
Format version : Version 1
Format profile : Layer 3
Codec ID : 55
Codec ID/Hint : MP3
Duration : 37mn 33s
Bit rate mode : Constant
Bit rate : 128 Kbps
Channel(s) : 2 channels
Sampling rate : 48.0 KHz
Stream size : 34.4 MiB (8%)
Alignment : Aligned on interleaves
Interleave, duration : 40 ms (1.00 video frame)
Interleave, preload duration : 504 ms
Writing library : LAME3.99r
Encoding settings : -m s -V 4 -q 2 -lowpass 17 -b 128
Complete name : 3.Начало конца.avi
Format : AVI
Format/Info : Audio Video Interleave
File size : 440 MiB
Duration : 38mn 11s
Overall bit rate : 1 612 Kbps
Writing application : VirtualDubMod 1.5.10.2 (build 2540/release)
Writing library : VirtualDubMod build 2540/release
Video
ID : 0
Format : MPEG-4 Visual
Format profile : Advanced Simple@L5
Format settings, BVOP : Yes
Format settings, QPel : No
Format settings, GMC : No warppoints
Format settings, Matrix : Default (MPEG)
Codec ID : DX50
Codec ID/Hint : DivX 5
Duration : 38mn 11s
Bit rate : 1 474 Kbps
Width : 704 pixels
Height : 400 pixels
Display aspect ratio : 16:9
Frame rate : 25.000 fps
Resolution : 8 bits
Colorimetry : 4:2:0
Scan type : Progressive
Bits/(Pixel*Frame) : 0.209
Stream size : 403 MiB (91%)
Writing library : XviD 1.2.1 (UTC 2008-12-04)
Audio
ID : 1
Format : MPEG Audio
Format version : Version 1
Format profile : Layer 3
Codec ID : 55
Codec ID/Hint : MP3
Duration : 38mn 10s
Bit rate mode : Constant
Bit rate : 128 Kbps
Channel(s) : 2 channels
Sampling rate : 48.0 KHz
Stream size : 35.0 MiB (8%)
Alignment : Aligned on interleaves
Interleave, duration : 40 ms (1.00 video frame)
Interleave, preload duration : 504 ms
Writing library : LAME3.99r
Encoding settings : -m s -V 4 -q 2 -lowpass 17 -b 128
Complete name : 4.Контрудар, отмененный Сталиным.avi
Format : AVI
Format/Info : Audio Video Interleave
File size : 441 MiB
Duration : 37mn 50s
Overall bit rate : 1 630 Kbps
Writing application : VirtualDubMod 1.5.10.2 (build 2540/release)
Writing library : VirtualDubMod build 2540/release
Video
ID : 0
Format : MPEG-4 Visual
Format profile : Advanced Simple@L5
Format settings, BVOP : Yes
Format settings, QPel : No
Format settings, GMC : No warppoints
Format settings, Matrix : Default (MPEG)
Codec ID : DX50
Codec ID/Hint : DivX 5
Duration : 37mn 50s
Bit rate : 1 492 Kbps
Width : 704 pixels
Height : 400 pixels
Display aspect ratio : 16:9
Frame rate : 25.000 fps
Resolution : 8 bits
Colorimetry : 4:2:0
Scan type : Progressive
Bits/(Pixel*Frame) : 0.212
Stream size : 404 MiB (92%)
Writing library : XviD 1.2.1 (UTC 2008-12-04)
Audio
ID : 1
Format : MPEG Audio
Format version : Version 1
Format profile : Layer 3
Codec ID : 55
Codec ID/Hint : MP3
Duration : 37mn 50s
Bit rate mode : Constant
Bit rate : 128 Kbps
Channel(s) : 2 channels
Sampling rate : 48.0 KHz
Stream size : 34.6 MiB (8%)
Alignment : Aligned on interleaves
Interleave, duration : 40 ms (1.00 video frame)
Interleave, preload duration : 504 ms
Writing library : LAME3.99r
Encoding settings : -m s -V 4 -q 2 -lowpass 17 -b 128
Complete name : 5.Танковое сражение века.avi
Format : AVI
Format/Info : Audio Video Interleave
File size : 446 MiB
Duration : 38mn 10s
Overall bit rate : 1 635 Kbps
Writing application : VirtualDubMod 1.5.10.3 | www.virtualdub-fr.org || (build 2550/release)
Writing library : VirtualDubMod build 2550/release
Video
ID : 0
Format : MPEG-4 Visual
Format profile : Advanced Simple@L5
Format settings, BVOP : Yes
Format settings, QPel : No
Format settings, GMC : No warppoints
Format settings, Matrix : Default (MPEG)
Codec ID : XVID
Codec ID/Hint : XviD
Duration : 38mn 10s
Bit rate : 1 497 Kbps
Width : 704 pixels
Height : 400 pixels
Display aspect ratio : 16:9
Frame rate : 25.000 fps
Resolution : 8 bits
Colorimetry : 4:2:0
Scan type : Progressive
Bits/(Pixel*Frame) : 0.213
Stream size : 409 MiB (92%)
Writing library : XviD 1.2.1 (UTC 2008-12-04)
Audio
ID : 1
Format : MPEG Audio
Format version : Version 1
Format profile : Layer 3
Codec ID : 55
Codec ID/Hint : MP3
Duration : 38mn 10s
Bit rate mode : Constant
Bit rate : 128 Kbps
Channel(s) : 2 channels
Sampling rate : 48.0 KHz
Stream size : 35.0 MiB (8%)
Alignment : Aligned on interleaves
Interleave, duration : 40 ms (1.00 video frame)
Interleave, preload duration : 504 ms
Writing library : LAME3.99r
Encoding settings : -m s -V 4 -q 2 -lowpass 17 -b 128
Complete name : 6.Операция Кутузов.avi
Format : AVI
Format/Info : Audio Video Interleave
File size : 436 MiB
Duration : 37mn 52s
Overall bit rate : 1 610 Kbps
Writing application : VirtualDubMod 1.5.10.2 (build 2540/release)
Writing library : VirtualDubMod build 2540/release
Video
ID : 0
Format : MPEG-4 Visual
Format profile : Advanced Simple@L5
Format settings, BVOP : Yes
Format settings, QPel : No
Format settings, GMC : No warppoints
Format settings, Matrix : Default (MPEG)
Codec ID : XVID
Codec ID/Hint : XviD
Duration : 37mn 52s
Bit rate : 1 472 Kbps
Width : 704 pixels
Height : 400 pixels
Display aspect ratio : 16:9
Frame rate : 25.000 fps
Resolution : 8 bits
Colorimetry : 4:2:0
Scan type : Progressive
Bits/(Pixel*Frame) : 0.209
Stream size : 399 MiB (91%)
Writing library : XviD 1.2.1 (UTC 2008-12-04)
Audio
ID : 1
Format : MPEG Audio
Format version : Version 1
Format profile : Layer 3
Codec ID : 55
Codec ID/Hint : MP3
Duration : 37mn 52s
Bit rate mode : Constant
Bit rate : 128 Kbps
Channel(s) : 2 channels
Sampling rate : 48.0 KHz
Stream size : 34.7 MiB (8%)
Alignment : Aligned on interleaves
Interleave, duration : 40 ms (1.00 video frame)
Interleave, preload duration : 504 ms
Writing library : LAME3.99r
Encoding settings : -m s -V 4 -q 2 -lowpass 17 -b 128
Complete name : 7.Партизанские тропы.avi
Format : AVI
Format/Info : Audio Video Interleave
File size : 428 MiB
Duration : 37mn 35s
Overall bit rate : 1 590 Kbps
Writing application : VirtualDubMod 1.5.10.2 (build 2540/release)
Writing library : VirtualDubMod build 2540/release
Video
ID : 0
Format : MPEG-4 Visual
Format profile : Advanced Simple@L5
Format settings, BVOP : Yes
Format settings, QPel : No
Format settings, GMC : No warppoints
Format settings, Matrix : Default (MPEG)
Codec ID : XVID
Codec ID/Hint : XviD
Duration : 37mn 35s
Bit rate : 1 453 Kbps
Width : 704 pixels
Height : 400 pixels
Display aspect ratio : 16:9
Frame rate : 25.000 fps
Resolution : 8 bits
Colorimetry : 4:2:0
Scan type : Progressive
Bits/(Pixel*Frame) : 0.206
Stream size : 391 MiB (91%)
Writing library : XviD 1.2.1 (UTC 2008-12-04)
Audio
ID : 1
Format : MPEG Audio
Format version : Version 1
Format profile : Layer 3
Codec ID : 55
Codec ID/Hint : MP3
Duration : 37mn 35s
Bit rate mode : Constant
Bit rate : 128 Kbps
Channel(s) : 2 channels
Sampling rate : 48.0 KHz
Stream size : 34.4 MiB (8%)
Alignment : Aligned on interleaves
Interleave, duration : 40 ms (1.00 video frame)
Interleave, preload duration : 504 ms
Writing library : LAME3.99r
Encoding settings : -m s -V 4 -q 2 -lowpass 17 -b 128
Complete name : 8.Операция Полководец Румянцев.avi
Format : AVI
Format/Info : Audio Video Interleave
File size : 435 MiB
Duration : 37mn 45s
Overall bit rate : 1 610 Kbps
Writing application : VirtualDubMod 1.5.10.2 (build 2540/release)
Writing library : VirtualDubMod build 2540/release
Video
ID : 0
Format : MPEG-4 Visual
Format profile : Advanced Simple@L5
Format settings, BVOP : Yes
Format settings, QPel : No
Format settings, GMC : No warppoints
Format settings, Matrix : Default (MPEG)
Codec ID : XVID
Codec ID/Hint : XviD
Duration : 37mn 45s
Bit rate : 1 472 Kbps
Width : 704 pixels
Height : 400 pixels
Display aspect ratio : 16:9
Frame rate : 25.000 fps
Resolution : 8 bits
Colorimetry : 4:2:0
Scan type : Progressive
Bits/(Pixel*Frame) : 0.209
Stream size : 398 MiB (91%)
Writing library : XviD 1.2.1 (UTC 2008-12-04)
Audio
ID : 1
Format : MPEG Audio
Format version : Version 1
Format profile : Layer 3
Codec ID : 55
Codec ID/Hint : MP3
Duration : 37mn 45s
Bit rate mode : Constant
Bit rate : 128 Kbps
Channel(s) : 2 channels
Sampling rate : 48.0 KHz
Stream size : 34.6 MiB (8%)
Alignment : Aligned on interleaves
Interleave, duration : 40 ms (1.00 video frame)
Interleave, preload duration : 504 ms
Writing library : LAME3.99r
Encoding settings : -m s -V 4 -q 2 -lowpass 17 -b 128
- -


Показать сообщения:    

Текущее время: 14-Дек 02:35

Часовой пояс: UTC ± 0


Вы не можете начинать темы
Вы не можете отвечать на сообщения
Вы не можете редактировать свои сообщения
Вы не можете удалять свои сообщения
Вы не можете голосовать в опросах
Вы не можете прикреплять файлы к сообщениям
Вы не можете скачивать файлы

!ВНИМАНИЕ!
Сайт не предоставляет электронные версии произведений, а занимается лишь коллекционированием и каталогизацией ссылок, присылаемых и публикуемых на форуме нашими читателями. Если вы являетесь правообладателем какого-либо представленного материала и не желаете, чтобы ссылка на него находилась в нашем каталоге, свяжитесь с нами, и мы незамедлительно удалим ее. Файлы для обмена на трекере предоставлены пользователями сайта, и администрация не несет ответственности за их содержание. Просьба не заливать файлы, защищенные авторскими правами, а также файлы нелегального содержания!