Курская битва. Время побеждать (Александр Беланов) [2013, исторический, DVB] :: Ивановский Торрент трекер
Важное объявление!
У Нас Все раздачи мультитрекерные, при нуле пиров в релизах, можете смело вставать на закачку!
Статистика раздачи
Размер:     |    Зарегистрирован:     |    Скачан:     |   
Нет
 
     
 
 
Автор Сообщение

HUNTER

Стаж:
4 года 11 месяцев
Сообщений:
66054

Репутация: 101

[+] [-]
Вне форума [Профиль] [ЛС]

Курская битва. Время побеждать (8 серий)
Год выпуска: 2013
Страна: Россия
Жанр: исторический
Продолжительность: 00:38:15 + 00:37:39 + 00:38:16 + 00:37:54 + 00:38:10 + 00:37:58 + 00:37:29 + 00:37:51
Перевод: Не требуется
Режиссер: Александр Беланов
Описание: Новый восьмисерийный фильм «Курская битва. Время побеждать» расскажет о том, как после победы под Сталинградом, после унизительного отступления и тяжёлых, кровопролитных боёв советские солдаты перешли в наступление.
Доп. информация: Запись потока *.ts со спутника EUTELSAT, ремукс в *.mpg программой VideoReDo.
качество: DVB
формат: MPG
Видео: MPEG2 Video, 704x576 (4:3), 25,000 кадров/сек, 2 638 Кбит/сек
Аудио: MPEG Audio, 48,0 КГц, 192 Кбит/сек, 2 канала

Список выпусков/серий

01 Операция "Цитадель"
02 Разменная монета фюрера
03 Начало конца
04 Контрудар, отмененный Сталиным
05 Танковое сражение века
06 Операция "Кутузов"
07 Партизанские тропы
08 Операция "Полководец Румянцев"

MediaInfo

General
Complete name : D:\Torrent\Курская битва. Время побеждать\01 Операция Цитадель (ZVEZDA).mpg
Format : MPEG-PS
File size : 790 MiB
Duration : 38mn 15s
Overall bit rate mode : Variable
Overall bit rate : 2 887 Kbps
Video
ID : 224 (0xE0)
Format : MPEG Video
Format version : Version 2
Format profile : Main@Main
Format settings, BVOP : Yes
Format settings, Matrix : Custom
Format settings, GOP : M=1, N=36
Duration : 38mn 15s
Bit rate mode : Variable
Bit rate : 2 638 Kbps
Maximum bit rate : 15.0 Mbps
Width : 704 pixels
Height : 576 pixels
Display aspect ratio : 4:3
Frame rate : 25.000 fps
Standard : PAL
Color space : YUV
Chroma subsampling : 4:2:0
Bit depth : 8 bits
Scan type : Interlaced
Scan order : Top Field First
Compression mode : Lossy
Bits/(Pixel*Frame) : 0.260
Stream size : 722 MiB (91%)
Audio
ID : 192 (0xC0)
Format : MPEG Audio
Format version : Version 1
Format profile : Layer 2
Duration : 38mn 15s
Bit rate mode : Constant
Bit rate : 192 Kbps
Channel(s) : 2 channels
Sampling rate : 48.0 KHz
Compression mode : Lossy
Stream size : 52.5 MiB (7%)
General
Complete name : D:\Torrent\Курская битва. Время побеждать\02 Разменная монета фюрера (ZVEZDA).mpg
Format : MPEG-PS
File size : 778 MiB
Duration : 37mn 39s
Overall bit rate mode : Variable
Overall bit rate : 2 887 Kbps
Video
ID : 224 (0xE0)
Format : MPEG Video
Format version : Version 2
Format profile : Main@Main
Format settings, BVOP : Yes
Format settings, Matrix : Custom
Format settings, GOP : M=1, N=29
Duration : 37mn 39s
Bit rate mode : Variable
Bit rate : 2 638 Kbps
Maximum bit rate : 15.0 Mbps
Width : 704 pixels
Height : 576 pixels
Display aspect ratio : 4:3
Frame rate : 25.000 fps
Standard : PAL
Color space : YUV
Chroma subsampling : 4:2:0
Bit depth : 8 bits
Scan type : Interlaced
Scan order : Top Field First
Compression mode : Lossy
Bits/(Pixel*Frame) : 0.260
Stream size : 710 MiB (91%)
Audio
ID : 192 (0xC0)
Format : MPEG Audio
Format version : Version 1
Format profile : Layer 2
Duration : 37mn 39s
Bit rate mode : Constant
Bit rate : 192 Kbps
Channel(s) : 2 channels
Sampling rate : 48.0 KHz
Compression mode : Lossy
Stream size : 51.7 MiB (7%)
General
Complete name : D:\Torrent\Курская битва. Время побеждать\03 Начало конца (ZVEZDA).mpg
Format : MPEG-PS
File size : 790 MiB
Duration : 38mn 16s
Overall bit rate mode : Variable
Overall bit rate : 2 887 Kbps
Video
ID : 224 (0xE0)
Format : MPEG Video
Format version : Version 2
Format profile : Main@Main
Format settings, BVOP : Yes
Format settings, Matrix : Custom
Format settings, GOP : M=1, N=23
Duration : 38mn 16s
Bit rate mode : Variable
Bit rate : 2 638 Kbps
Maximum bit rate : 15.0 Mbps
Width : 704 pixels
Height : 576 pixels
Display aspect ratio : 4:3
Frame rate : 25.000 fps
Standard : PAL
Color space : YUV
Chroma subsampling : 4:2:0
Bit depth : 8 bits
Scan type : Interlaced
Scan order : Top Field First
Compression mode : Lossy
Bits/(Pixel*Frame) : 0.260
Stream size : 722 MiB (91%)
Audio
ID : 192 (0xC0)
Format : MPEG Audio
Format version : Version 1
Format profile : Layer 2
Duration : 38mn 16s
Bit rate mode : Constant
Bit rate : 192 Kbps
Channel(s) : 2 channels
Sampling rate : 48.0 KHz
Compression mode : Lossy
Stream size : 52.6 MiB (7%)
General
Complete name : D:\Torrent\Курская битва. Время побеждать\04 Контрудар отмененный Сталиным (ZVEZDA).mpg
Format : MPEG-PS
File size : 783 MiB
Duration : 37mn 54s
Overall bit rate mode : Variable
Overall bit rate : 2 887 Kbps
Video
ID : 224 (0xE0)
Format : MPEG Video
Format version : Version 2
Format profile : Main@Main
Format settings, BVOP : Yes
Format settings, Matrix : Custom
Format settings, GOP : M=1, N=22
Duration : 37mn 54s
Bit rate mode : Variable
Bit rate : 2 638 Kbps
Maximum bit rate : 15.0 Mbps
Width : 704 pixels
Height : 576 pixels
Display aspect ratio : 4:3
Frame rate : 25.000 fps
Standard : PAL
Color space : YUV
Chroma subsampling : 4:2:0
Bit depth : 8 bits
Scan type : Interlaced
Scan order : Top Field First
Compression mode : Lossy
Bits/(Pixel*Frame) : 0.260
Stream size : 715 MiB (91%)
Audio
ID : 192 (0xC0)
Format : MPEG Audio
Format version : Version 1
Format profile : Layer 2
Duration : 37mn 54s
Bit rate mode : Constant
Bit rate : 192 Kbps
Channel(s) : 2 channels
Sampling rate : 48.0 KHz
Compression mode : Lossy
Stream size : 52.1 MiB (7%)
General
Complete name : X:\Torrent\Курская битва. Время побеждать\05 Танковое сражение века (ZVEZDA).mpg
Format : MPEG-PS
File size : 789 MiB
Duration : 38mn 10s
Overall bit rate mode : Variable
Overall bit rate : 2 888 Kbps
Video
ID : 224 (0xE0)
Format : MPEG Video
Format version : Version 2
Format profile : Main@Main
Format settings, BVOP : Yes
Format settings, Matrix : Custom
Format settings, GOP : M=1, N=23
Duration : 38mn 10s
Bit rate mode : Variable
Bit rate : 2 639 Kbps
Maximum bit rate : 15.0 Mbps
Width : 704 pixels
Height : 576 pixels
Display aspect ratio : 4:3
Frame rate : 25.000 fps
Standard : PAL
Color space : YUV
Chroma subsampling : 4:2:0
Bit depth : 8 bits
Scan type : Interlaced
Scan order : Top Field First
Compression mode : Lossy
Bits/(Pixel*Frame) : 0.260
Stream size : 720 MiB (91%)
Audio
ID : 192 (0xC0)
Format : MPEG Audio
Format version : Version 1
Format profile : Layer 2
Duration : 38mn 10s
Bit rate mode : Constant
Bit rate : 192 Kbps
Channel(s) : 2 channels
Sampling rate : 48.0 KHz
Compression mode : Lossy
Stream size : 52.4 MiB (7%)
General
Complete name : X:\Torrent\Курская битва. Время побеждать\06 Операция Кутузов (ZVEZDA).mpg
Format : MPEG-PS
File size : 784 MiB
Duration : 37mn 58s
Overall bit rate mode : Variable
Overall bit rate : 2 887 Kbps
Video
ID : 224 (0xE0)
Format : MPEG Video
Format version : Version 2
Format profile : Main@Main
Format settings, BVOP : Yes
Format settings, Matrix : Custom
Format settings, GOP : M=1, N=22
Duration : 37mn 58s
Bit rate mode : Variable
Bit rate : 2 638 Kbps
Maximum bit rate : 15.0 Mbps
Width : 704 pixels
Height : 576 pixels
Display aspect ratio : 4:3
Frame rate : 25.000 fps
Standard : PAL
Color space : YUV
Chroma subsampling : 4:2:0
Bit depth : 8 bits
Scan type : Interlaced
Scan order : Top Field First
Compression mode : Lossy
Bits/(Pixel*Frame) : 0.260
Stream size : 716 MiB (91%)
Audio
ID : 192 (0xC0)
Format : MPEG Audio
Format version : Version 1
Format profile : Layer 2
Duration : 37mn 58s
Bit rate mode : Constant
Bit rate : 192 Kbps
Channel(s) : 2 channels
Sampling rate : 48.0 KHz
Compression mode : Lossy
Stream size : 52.1 MiB (7%)
General
Complete name : X:\Torrent\Курская битва. Время побеждать\07 Партизанские тропы (ZVEZDA).mpg
Format : MPEG-PS
File size : 778 MiB
Duration : 37mn 39s
Overall bit rate mode : Variable
Overall bit rate : 2 887 Kbps
Video
ID : 224 (0xE0)
Format : MPEG Video
Format version : Version 2
Format profile : Main@Main
Format settings, BVOP : Yes
Format settings, Matrix : Custom
Format settings, GOP : M=1, N=26
Duration : 37mn 39s
Bit rate mode : Variable
Bit rate : 2 638 Kbps
Maximum bit rate : 15.0 Mbps
Width : 704 pixels
Height : 576 pixels
Display aspect ratio : 4:3
Frame rate : 25.000 fps
Standard : PAL
Color space : YUV
Chroma subsampling : 4:2:0
Bit depth : 8 bits
Scan type : Interlaced
Scan order : Top Field First
Compression mode : Lossy
Bits/(Pixel*Frame) : 0.260
Stream size : 711 MiB (91%)
Audio
ID : 192 (0xC0)
Format : MPEG Audio
Format version : Version 1
Format profile : Layer 2
Duration : 37mn 39s
Bit rate mode : Constant
Bit rate : 192 Kbps
Channel(s) : 2 channels
Sampling rate : 48.0 KHz
Compression mode : Lossy
Stream size : 51.7 MiB (7%)
General
Complete name : X:\Torrent\Курская битва. Время побеждать\08 Операция полководец Румянцев (ZVEZDA).mpg
Format : MPEG-PS
File size : 782 MiB
Duration : 37mn 50s
Overall bit rate mode : Variable
Overall bit rate : 2 887 Kbps
Video
ID : 224 (0xE0)
Format : MPEG Video
Format version : Version 2
Format profile : Main@Main
Format settings, BVOP : Yes
Format settings, Matrix : Custom
Format settings, GOP : M=1, N=29
Duration : 37mn 50s
Bit rate mode : Variable
Bit rate : 2 638 Kbps
Maximum bit rate : 15.0 Mbps
Width : 704 pixels
Height : 576 pixels
Display aspect ratio : 4:3
Frame rate : 25.000 fps
Standard : PAL
Color space : YUV
Chroma subsampling : 4:2:0
Bit depth : 8 bits
Scan type : Interlaced
Scan order : Top Field First
Compression mode : Lossy
Bits/(Pixel*Frame) : 0.260
Stream size : 714 MiB (91%)
Audio
ID : 192 (0xC0)
Format : MPEG Audio
Format version : Version 1
Format profile : Layer 2
Duration : 37mn 50s
Bit rate mode : Constant
Bit rate : 192 Kbps
Channel(s) : 2 channels
Sampling rate : 48.0 KHz
Compression mode : Lossy
Stream size : 52.0 MiB (7%)

Скриншоты


_________________
Показать сообщения:    

Текущее время: Сегодня 05:18

Часовой пояс: GMT



Вы не можете начинать темы
Вы не можете отвечать на сообщения
Вы не можете редактировать свои сообщения
Вы не можете удалять свои сообщения
Вы не можете голосовать в опросах
Вы не можете прикреплять файлы к сообщениям
Вы не можете скачивать файлы