Кунг-фу Панда 3 / Kung Fu Panda 3 (Алессандро Карлони / Alessandro Carloni, Дженнифер Ю Нельсон / Jennifer Yuh Nelson) [2016, США, Китай, Мультипликация, WEB-DL 1080p] Dub (Rus) [iTunes] + Sub (Rus, Ukr) [iTunes] :: Ивановский Торрент трекер
Важное объявление!
У Нас Все раздачи мультитрекерные, при нуле пиров в релизах, можете смело вставать на закачку!
Статистика раздачи
Размер:     |    Зарегистрирован:     |    Скачан:     |   
Нет
 
     
 
 
Автор Сообщение

HUNTER

Стаж:
4 года 11 месяцев
Сообщений:
66077

Репутация: 101

[+] [-]
Вне форума [Профиль] [ЛС]

Кунг-фу Панда 3 / Kung Fu Panda 3
Страна: США, Китай
Жанр: Мультипликация
Продолжительность: 01:35:12
Год выпуска: 2016
Перевод: Профессиональный (дублированный) [iTunes]
Русские субтитры: есть-Режиссёр: Алессандро Карлони / Alessandro Carloni, Дженнифер Ю Нельсон / Jennifer Yuh Nelson
Роли озвучивали: Джек Блэк, Брайан Крэнстон, Дастин Хоффман, Анджелина Джоли, Дж.К. Симмонс, Джеки Чан, Сет Роген, Люси Лью, Дэвид Кросс, Кейт Хадсон-Описание: Воссоединившись со своим давно потерянным отцом, По отправляется в тайный рай для панд, где его ожидает встреча с множеством веселых сородичей. Однако вскоре злодей Кай начинает зачистку — он уничтожает кунг-фу мастеров по всему Китаю. По предстоит сделать невозможное — обучить боевому искусству деревню, полную его веселых, неуклюжих собратьев, и тем самым превратить их в отряд кунг-фу панд.-Релиз от - -Качество: WEB-DL 1080p
Формат: MKV
Видео: AVC, 1916x812 (2.35:1), 23.976 fps, 4 465 Kbps (0.120 bit/pixel)
Аудио 1: AC-3, 48.0 KHz, 6 ch, 384 Kbps, CBR (Russian) [iTunes]
Аудио 2: AAC LC, 48.0 KHz, 2 ch (English)
Субтитры: Russian (Forced, iTunes), Russian (iTunes), Ukrainian (iTunes), English (iTunes)
Семпл: Забираем тут

Подробные технические данные

GeneralUnique ID : 185335214887391383518142976905316806269 (0x8B6E43962A976B2D801AE7B9E9362E7D)Complete name : Kung Fu Panda 3 2016 WEB-DL 1080p.mkvFormat : MatroskaFormat version : Version 4 / Version 2File size : 3.40 GiBDuration : 1h 35mnOverall bit rate : 5 106 KbpsEncoded date : UTC 2016-03-24 05:28:57Writing application : mkvmerge v8.8.0 ('Wind at my back') 64bitWriting library : libebml v1.3.3 + libmatroska v1.4.4Cover : YesAttachments : cover_land.jpg / small_cover.jpg / small_cover_land.jpg / cover.jpg
VideoID : 1Format : AVCFormat/Info : Advanced Video CodecFormat profile : High@L4Format settings, CABAC : YesFormat settings, ReFrames : 5 framesCodec ID : V_MPEG4/ISO/AVCDuration : 1h 35mnBit rate : 4 563 KbpsWidth : 1 916 pixelsHeight : 812 pixelsDisplay aspect ratio : 2.35:1Frame rate mode : ConstantFrame rate : 23.976 (23976/1000) fpsColor space : YUVChroma subsampling : 4:2:0Bit depth : 8 bitsScan type : ProgressiveBits/(Pixel*Frame) : 0.122Stream size : 3.03 GiB (89%)Language : EnglishDefault : YesForced : NoColor range : LimitedColor primaries : BT.709Transfer characteristics : BT.709Matrix coefficients : BT.709
Audio #1ID : 2Format : AC-3Format/Info : Audio Coding 3Mode extension : CM (complete main)Format settings, Endianness : BigCodec ID : A_AC3Duration : 1h 34mnBit rate mode : ConstantBit rate : 384 KbpsChannel(s) : 6 channelsChannel positions : Front: L C R, Side: L R, LFESampling rate : 48.0 KHzFrame rate : 31.250 fps (1536 spf)Compression mode : LossyStream size : 261 MiB (7%)Language : RussianDefault : YesForced : No
Audio #2ID : 3Format : AACFormat/Info : Advanced Audio CodecFormat profile : LCCodec ID : A_AACDuration : 1h 34mnBit rate : 158 KbpsChannel(s) : 2 channelsChannel positions : Front: L RSampling rate : 48.0 KHzFrame rate : 46.875 fps (1024 spf)Compression mode : LossyStream size : 107 MiB (3%)Language : EnglishDefault : NoForced : No
Text #1ID : 4Format : UTF-8Codec ID : S_TEXT/UTF8Codec ID/Info : UTF-8 Plain TextDuration : 1h 30mnBit rate : 0 bpsCount of elements : 3Stream size : 89.0 Bytes (0%)Title : Forced, iTunesLanguage : RussianDefault : YesForced : Yes
Text #2ID : 5Format : UTF-8Codec ID : S_TEXT/UTF8Codec ID/Info : UTF-8 Plain TextDuration : 1h 34mnBit rate : 76 bpsCount of elements : 1260Stream size : 53.0 KiB (0%)Language : RussianDefault : NoForced : No
Text #3ID : 6Format : UTF-8Codec ID : S_TEXT/UTF8Codec ID/Info : UTF-8 Plain TextDuration : 1h 34mnBit rate : 80 bpsCount of elements : 1266Stream size : 55.5 KiB (0%)Language : UkrainianDefault : NoForced : No
Text #4ID : 7Format : UTF-8Codec ID : S_TEXT/UTF8Codec ID/Info : UTF-8 Plain TextDuration : 1h 34mnBit rate : 50 bpsCount of elements : 1413Stream size : 34.6 KiB (0%)Language : EnglishDefault : NoForced : No
Menu00:00:00.000 : en:100:05:20.737 : en:200:08:09.197 : en:300:09:58.973 : en:400:12:24.994 : en:500:15:23.172 : en:600:19:07.187 : en:700:24:38.351 : en:800:30:16.564 : en:900:33:52.947 : en:1000:36:17.216 : en:1100:39:54.600 : en:1200:43:31.608 : en:1300:46:44.801 : en:1400:51:40.138 : en:1500:56:03.568 : en:1600:59:47.124 : en:1701:02:10.267 : en:1801:05:25.920 : en:1901:10:15.793 : en:2001:14:05.856 : en:2101:17:05.535 : en:2201:20:33.743 : en:2301:24:20.136 : en:24

Скриншоты



_________________
Показать сообщения:    

Текущее время: Сегодня 07:12

Часовой пояс: GMT



Вы не можете начинать темы
Вы не можете отвечать на сообщения
Вы не можете редактировать свои сообщения
Вы не можете удалять свои сообщения
Вы не можете голосовать в опросах
Вы не можете прикреплять файлы к сообщениям
Вы не можете скачивать файлы