Важное объявление!
У Нас Все раздачи мультитрекерные, при нуле пиров в релизах, можете смело вставать на закачку!
 
Автор Сообщение

HUNTER

Стаж:
4 года 7 месяцев
Сообщений:
61531

Репутация: 101

[+] [-]
Вне форума [Профиль] [ЛС]

Кунг-фу Панда 3 / Kung Fu Panda 3
Страна: Китай, США
Жанр: Мультфильм, боевик, комедия, приключения, семейный
Продолжительность: 01:35:12
Год выпуска: 2016
Перевод: Профессиональный (дублированный) iTunes
Русские субтитры: нет--Режиссёр: Алессандро Карлони, Дженнифер Ю / Alessandro Carloni, Jennifer Yuh--Роли озвучивали: Джек Блэк, Брайан Крэнстон, Дастин Хоффман, Анджелина Джоли, Дж.К. Симмонс, Джеки Чан, Сет Роген, Люси Лью, Дэвид Кросс, Кейт Хадсон--Роли дублировали: Михаил Галустян, Александр Новиков, Василиса Эльдарова, Александр Хотченков, Ольга Зубкова--Описание: Воссоединившись со своим давно потерянным отцом, По отправляется в тайный рай для панд, где его ожидает встреча с множеством веселых сородичей. Однако вскоре злодей Кай начинает зачистку - он уничтожает кунг-фу мастеров по всему Китаю. По предстоит сделать невозможное - обучить боевому искусству деревню, полную его веселых, неуклюжих собратьев, и тем самым превратить их в отряд кунг-фу панд.--Доп. информация: | IMDB | КиноПоиск | Сэмпл |--Качество: WEB-DLRip
Формат: AVI
Видео: XviD build 73, 688x288 (2.39:1), 23.976 fps, 957 kbps, 0.20 bit/pixel
Аудио: MPEG Layer 3, 2 ch, 48 kHz, 128.00 kbps
Субтитры: отсутствуют

Подробные технические данные

GeneralComplete name : Kung Fu Panda 3.aviFormat : AVIFormat/Info : Audio Video InterleaveFile size : 745 MiBDuration : 1h 35mnOverall bit rate : 1 094 KbpsWriting application : VirtualDubMod 1.5.10.3 | www.virtualdub-fr.org || (build 2550/release)Writing library : VirtualDubMod build 2550/release
VideoID : 0Format : MPEG-4 VisualFormat profile : Advanced Simple@L5Format settings, BVOP : 1Format settings, QPel : NoFormat settings, GMC : No warppointsFormat settings, Matrix : CustomCodec ID : XVIDCodec ID/Hint : XviDDuration : 1h 35mnBit rate : 958 KbpsWidth : 688 pixelsHeight : 288 pixelsDisplay aspect ratio : 2.40:1Frame rate : 23.976 (23976/1000) fpsColor space : YUVChroma subsampling : 4:2:0Bit depth : 8 bitsScan type : ProgressiveCompression mode : LossyBits/(Pixel*Frame) : 0.202Stream size : 652 MiB (87%)Writing library : XviD 73
AudioID : 1Format : MPEG AudioFormat version : Version 1Format profile : Layer 3Codec ID : 55Codec ID/Hint : MP3Duration : 1h 34mnBit rate mode : ConstantBit rate : 128 KbpsChannel(s) : 2 channelsSampling rate : 48.0 KHzCompression mode : LossyStream size : 86.9 MiB (12%)Alignment : Aligned on interleavesInterleave, duration : 42 ms (1.00 video frame)Interleave, preload duratio : 504 msWriting library : LAME3.99rEncoding settings : -m s -V 4 -q 2 -lowpass 17 -b 128

Скриншоты


_________________
Показать сообщения:    

Текущее время: Сегодня 07:45

Часовой пояс: GMT



Вы не можете начинать темы
Вы не можете отвечать на сообщения
Вы не можете редактировать свои сообщения
Вы не можете удалять свои сообщения
Вы не можете голосовать в опросах
Вы не можете прикреплять файлы к сообщениям
Вы не можете скачивать файлы
Наши партнеры: интернет магазин Ивановского трикотажа textilla.ru