Важное объявление!
У Нас Все раздачи мультитрекерные, при нуле пиров в релизах, можете смело вставать на закачку!
 
Автор Сообщение

HUNTER

Стаж:
4 года 5 месяцев
Сообщений:
60857

Репутация: 101

[+] [-]
Вне форума [Профиль] [ЛС]

Кунг-фу Панда: Удивительные легенды | Kung-Fu Panda: Legends of Awesomeness-
Год выпуска: 2011
Страна: США
Жанр: Комедия, боевик, семейный
Продолжительность: ~ 00:24:00
Кол-во эпизодов: 1-26 из 26
Перевод: Профессиональный (дублированный) Nickelodeon
Субтитры: Нет-Режиссёр: Джим Шуманн, Лютер МакЛорин, Майк Маллен-
Панда По, ставший Великим воином Дракона, вместе со своими друзьями из Неистовой Пятёрки охраняет покой и порядок в Долине Мира. Сражаясь бок о бок с напарниками - Тигрицей, Обезьяной, Богомолом, Журавлем, Гадюкой и мастером Шифу, - добряк По защищает Нефритовый дворец от вторжения незваных гостей. Всем незнакомцам, осмелившимся переступить своей лапой или клешней через порог замка, приходится иметь дело с фирменными боевыми приемчиками нашего пушистого воина, который очень недоволен, когда его отрывают от поедания любимых пельмешек!
Сериал «Кунг-Фу Панда: Удивительные легенды», также как и его полнометражные предыстории, рассказывает о настоящей дружбе, вере в себя и свои силы, о преодолении страхов, которые есть у каждого из нас и которые просто необходимо перебарывать....
-
Качество: WEB-DLRip
Формат: AVI
Видео: 720x400 (1.80:1), 23.976 fps, XviD build 65 ~1228 kbps
Аудио #1: 48 kHz, AC3 Dolby Digital, 2/0 (L,R) ch, ~192.00 kbps avg |Дубляж
Аудио #2: 48 kHz, AC3 Dolby Digital, 2/0 (L,R) ch, ~192.00 kbps avg |Оригинал-

Эпизоды

01. Жало Скорпиона / Scorpion's Sting
02. Принцесса и По / The Princess and the Po
03. Липкое дело / Sticky Situation
04. Цепная реакция / Chain Reaction
05. Мозгобой дрожащего пальца / Fluttering Finger Mindslip
06. Хороший крокодил, плохой крокодил / Good Croc, Bad Croc
07. Герой родного города / Hometown Hero
08. Панда за решёткой / Jailhouse Panda
09. Возвращение совы / Owl Be Back
10. Плохой По / Bad Po
11. Заглядение / Sight for Sore Eyes
12. Месть Носорога / Rhino's Revenge
13. Мастер Пинг / Master Ping
14. Призрак Угвея / Ghost of Oogway
15. Кунг-фу малыш / The Kung Fu Kid
16. Повелительницы теней / Ladies of the Shade
17. Братишка По / Big Bro Po
18. Фанаты По / Po Fans Out
19. День поединка / Challenge Day
20. Мой любимый Яо / My Favorite Yao
21. Старики-помощники / In With the Old
22. Герой из прошлого / Has-been Hero
23. Жала любви / Love Stings
24. Трофей героя / Hall of Lame
25. Папа проходимец / Father Crime
26. Все дело в обезьяне / Monkey in the Middle
-

MediaInfo

Общее
Полное имя : D:\Downloads\Kung Fu Panda Legends 1 Dub\kung.fu.panda.legends.of.awesomeness.s01e01.web-dlrip.rus.eng.avi
Формат : AVI
Формат/Информация : Audio Video Interleave
Размер файла : 275 Мбайт
Продолжительность : 23 м.
Общий поток : 1612 Кбит/сек
Программа кодирования : VirtualDubMod 1.5.4.1 (build 2178/release)
Библиотека кодирования : VirtualDubMod build 2178/release
Видео
Идентификатор : 0
Формат : MPEG-4 Visual
Профиль формата : Advanced Simple@L5
Параметр BVOP формата : 1
Параметр QPel формата : Нет
Параметр GMC формата : Без точки перехода
Параметр матрицы формата : Выборочная
Идентификатор кодека : XVID
Идентификатор кодека/Подсказка : XviD
Продолжительность : 23 м.
Битрейт : 1219 Кбит/сек
Ширина : 720 пикс.
Высота : 400 пикс.
Соотношение сторон : 16:9
Частота кадров : 23,976 кадр/сек
Цветовое пространство : YUV
Подвыборка цветности : 4:2:0
Битовая глубина : 8 бит
Тип развёртки : Прогрессивная
Метод сжатия : С потерями
Бит/(Пиксели*Кадры) : 0.177
Размер потока : 208 Мбайт (76%)
Библиотека кодирования : XviD 64
Аудио #1
Идентификатор : 1
Формат : AC-3
Формат/Информация : Audio Coding 3
Расширение режима : CM (complete main)
Идентификатор кодека : 2000
Продолжительность : 23 м.
Вид битрейта : Постоянный
Битрейт : 192 Кбит/сек
Каналы : 2 канала
Расположение каналов : Front: L R
Частота : 48,0 КГц
Битовая глубина : 16 бит
Метод сжатия : С потерями
Размер потока : 32,8 Мбайт (12%)
Выравнивание : Разделение по промежуткам
Продолжительность промежутка : 96 мс. (2,30 видеокадра)
Время предзагрузки промежутка : 96 ms
Аудио #2
Идентификатор : 2
Формат : AC-3
Формат/Информация : Audio Coding 3
Расширение режима : CM (complete main)
Идентификатор кодека : 2000
Продолжительность : 23 м.
Вид битрейта : Постоянный
Битрейт : 192 Кбит/сек
Каналы : 2 канала
Расположение каналов : Front: L R
Частота : 48,0 КГц
Битовая глубина : 16 бит
Метод сжатия : С потерями
Размер потока : 32,8 Мбайт (12%)
Выравнивание : Разделение по промежуткам
Продолжительность промежутка : 96 мс. (2,30 видеокадра)
Время предзагрузки промежутка : 96 ms
-

Скриншоты


_________________
Показать сообщения:    

Текущее время: Сегодня 03:24

Часовой пояс: GMT



Вы не можете начинать темы
Вы не можете отвечать на сообщения
Вы не можете редактировать свои сообщения
Вы не можете удалять свои сообщения
Вы не можете голосовать в опросах
Вы не можете прикреплять файлы к сообщениям
Вы не можете скачивать файлы
Наши партнеры: интернет магазин Ивановского трикотажа textilla.ru