Важное объявление!
У Нас Все раздачи мультитрекерные, при нуле пиров в релизах, можете смело вставать на закачку!
 
Автор Сообщение

HUNTER

Стаж:
4 года 7 месяцев
Сообщений:
61590

Репутация: 101

[+] [-]
Вне форума [Профиль] [ЛС]

Кунг-фу Кролик: Повелитель огня / Tu Xia Chuan Qi: Qing Li Chuan Shuo
Страна: Китай
Жанр: Мультфильм, комедия, приключения, семейный
Продолжительность: 01:35:29
Год выпуска: 2015
Перевод: Профессиональный (дублированный) [iTunes]
Русские субтитры: нет
Режиссёр: Дейк Донг / Dake Dong
Роли озвучивали: Юньвэй Хэ, Ли Хуанг
Описание: Победу в поединке сильнейших бойцов неожиданно одерживает неуклюжий с виду пушистый кролик, лучше других владеющий секретами древнего кунг-фу, после чего становится главным защитником деревни. Однако, не долго ему удается купаться в лучах славы и наслаждаться вниманием поклонников. Злодеи вознамерились выкрасть у кролика магический камень и тем самым лишить его силы. Сможет ли пушистый супергерой защитить деревню и противостоять злодеям без силы волшебного камня?
Семпл: http://multi-up.com/1071754
Качество: WEB-DLRip
Формат: AVI
Видео: 720x304 (2.35:1), 24 fps, XviD build 73 ~892 kbps avg, 0.170 bit/pixel
Аудио: 48 kHz, AC3, 2 ch, ~128.00 kbps avg
Субтитры: отсутствуют

Подробные технические данные

General Complete name : KuNg.Fu.Kr0liK.p0ve1itel.0gnya.2015.D.WEB-DLRip.700MB.avi Format : AVI Format/Info : Audio Video Interleave File size : 703 MiB Duration : 1h 35mn Overall bit rate : 1 029 Kbps Writing application : VirtualDubMod 1.5.10.3 | www.virtualdub-fr.org || (build 2550/release) Writing library : VirtualDubMod build 2550/release Video #0 ID : 0 Format : MPEG-4 Visual Format profile : Advanced Simple@L5 Format settings, BVOP : 4 Format settings, QPel : No Format settings, GMC : No warppoints Format settings, Matrix : Default (H.263) Codec ID : XVID Codec ID/Hint : XviD Duration : 1h 35mn Bit rate : 892 Kbps Width : 720 pixels Height : 304 pixels Display aspect ratio : 2.35:1 Frame rate : 24.000 fps Color space : YUV Chroma subsampling : 4:2:0 Bit depth : 8 bits Scan type : Progressive Compression mode : Lossy Bits/(Pixel*Frame) : 0.170 Stream size : 609 MiB (87%) Writing library : XviD 73 Audio #1 ID : 1 Format : MPEG Audio Format version : Version 1 Format profile : Layer 3 Codec ID : 55 Codec ID/Hint : MP3 Duration : 1h 35mn Bit rate mode : Constant Bit rate : 128 Kbps Channel(s) : 2 channels Sampling rate : 48.0 KHz Compression mode : Lossy Stream size : 87.4 MiB (12%) Alignment : Aligned on interleaves Interleave, duration : 42 ms (1.00 video frame) Interleave, preload duration : 504 ms Writing library : LAME3.99r Encoding settings : -m s -V 4 -q 2 -lowpass 17 -b 128

Скриншоты


_________________
Показать сообщения:    

Текущее время: Сегодня 12:51

Часовой пояс: GMT



Вы не можете начинать темы
Вы не можете отвечать на сообщения
Вы не можете редактировать свои сообщения
Вы не можете удалять свои сообщения
Вы не можете голосовать в опросах
Вы не можете прикреплять файлы к сообщениям
Вы не можете скачивать файлы
Наши партнеры: интернет магазин Ивановского трикотажа textilla.ru