Кунг-фу Кролик: Повелитель огня / Tu Xia Chuan Qi: Qing Li Chuan Shuo (Дейк Донг / Dake Dong) [2015, Мультипликация, WEB-DL 1080p] Dub :: Ивановский Торрент трекер
Важное объявление!
У Нас Все раздачи мультитрекерные, при нуле пиров в релизах, можете смело вставать на закачку!
Статистика раздачи
Размер:     |    Зарегистрирован:     |    Скачан:     |   
Нет
 
     
 
 
Автор Сообщение

HUNTER

Стаж:
4 года 11 месяцев
Сообщений:
66054

Репутация: 101

[+] [-]
Вне форума [Профиль] [ЛС]

Кунг-фу Кролик: Повелитель огня / Tu Xia Chuan Qi: Qing Li Chuan Shuo
Страна: Китай
Жанр: Мультипликация
Продолжительность: 01:35:29
Год выпуска: 2015
Перевод: Профессиональный (дублированный)
Русские субтитры: нет-Режиссёр: Дейк Донг / Dake Dong
Роли озвучивали: Юньвэй Хэ, Ли Хуанг-Описание: Победу в поединке сильнейших бойцов неожиданно одерживает неуклюжий с виду пушистый кролик, лучше других владеющий секретами древнего кунг-фу, после чего становится главным защитником деревни. Однако, не долго ему удается купаться в лучах славы и наслаждаться вниманием поклонников. Злодеи вознамерились выкрасть у кролика магический камень и тем самым лишить его силы. Сможет ли пушистый супергерой защитить деревню и противостоять злодеям без силы волшебного камня?-Качество: WEB-DL 1080p
Формат: MKV
Видео: AVC, 1920x804 (2.35:1), 24.000 fps, 4 407 Kbps (0.119 bit/pixel)
Аудио: AC-3, 48.0 KHz, 6 ch, 384 Kbps, CBR (Russian)
Субтитры: отсутствуют
Семпл: Забираем тут

Подробные технические данные

GeneralUnique ID : 251172568922140138581114142374003161470 (0xBCF613C162BD712489CFC2BCEC7B397E)Complete name : Кунг-фу Кролик Повелитель огня 2015 WEB-DL 1080p.mkvFormat : MatroskaFormat version : Version 4 / Version 2File size : 3.26 GiBDuration : 1h 35mnOverall bit rate : 4 888 KbpsEncoded date : UTC 2015-10-14 18:57:25Writing application : mkvmerge v6.0.0 ('Coming Up For Air') built on Jan 20 2013 09:52:00Writing library : libebml v1.3.0 + libmatroska v1.4.0
VideoID : 1Format : AVCFormat/Info : Advanced Video CodecFormat profile : High@L4Format settings, CABAC : YesFormat settings, ReFrames : 5 framesCodec ID : V_MPEG4/ISO/AVCDuration : 1h 35mnBit rate : 4 407 KbpsWidth : 1 920 pixelsHeight : 804 pixelsDisplay aspect ratio : 2.40:1Frame rate mode : ConstantFrame rate : 24.000 fpsColor space : YUVChroma subsampling : 4:2:0Bit depth : 8 bitsScan type : ProgressiveBits/(Pixel*Frame) : 0.119Stream size : 2.94 GiB (90%)Language : EnglishDefault : YesForced : NoColor range : LimitedColor primaries : BT.709Transfer characteristics : BT.709Matrix coefficients : BT.709
AudioID : 2Format : AC-3Format/Info : Audio Coding 3Mode extension : CM (complete main)Format settings, Endianness : BigCodec ID : A_AC3Duration : 1h 35mnBit rate mode : ConstantBit rate : 384 KbpsChannel(s) : 6 channelsChannel positions : Front: L C R, Side: L R, LFESampling rate : 48.0 KHzCompression mode : LossyStream size : 262 MiB (8%)Language : RussianDefault : YesForced : No
Menu00:00:00.000 : en:Глава 100:05:00.000 : en:Глава 200:11:09.000 : en:Глава 300:17:22.000 : en:Глава 400:22:23.000 : en:Глава 500:27:50.000 : en:Глава 600:33:19.000 : en:Глава 700:39:40.000 : en:Глава 800:45:38.000 : en:Глава 900:50:01.000 : en:Глава 1000:55:19.000 : en:Глава 1101:00:37.000 : en:Глава 1201:05:55.000 : en:Глава 1301:12:18.000 : en:Глава 1401:18:02.000 : en:Глава 1501:23:37.000 : en:Глава 1601:30:10.000 : en:Глава 17

Скриншоты



_________________
Показать сообщения:    

Текущее время: Сегодня 00:16

Часовой пояс: GMT



Вы не можете начинать темы
Вы не можете отвечать на сообщения
Вы не можете редактировать свои сообщения
Вы не можете удалять свои сообщения
Вы не можете голосовать в опросах
Вы не можете прикреплять файлы к сообщениям
Вы не можете скачивать файлы