Ивановский Торрент трекер
Яндекс.Погода
 

[Цитировать]
HUNTER

Культ
The Cult
Сезон: 1 / Серии: 7 из ??

-

  • Год производства: 2013

  • Страна: США \ CW

  • Жанр: Триллер, драма, криминал

  • Продолжительность: ~00:45:00

  • Кол-во серий/сезонов: Сезон: 1 / Серии: 7 из ??

  • Перевод: Профессиональный (двухголосый закадровый) (NewStudio)

  • Субтитры: Отсутствуют-
  • Режиссер: Натан Хоуп / Nathan Hope-
  • В ролях: Мэтт Дэвис, Джессика Лукас, Алона Тал, Роберт Неппер, Мари Авгеропулос, Джеймс Пиццинато, Кристиан Майкл Купер, Джеффри Пирс, Аиша Хиндс, Кадим Хардисон-
  • Описание: Мистический сериал рассказывает о ряде таинственных событий, в результате которых исчезли люди. Молодая помощница продюсера в тандеме с блоггером-журналистом начинают вести расследование среди группы ярых фанатиков, которые осуществляют убийства из телешоу.-
  • Качество видео: WEB-DL 720p

  • Формат видео: mkv

  • Видео кодек: H.264

  • Аудио кодек: AC3

  • Видео: 1280x720, 23.976 fps, 4042 kbps avg, 0.183 bit/pixel

  • Аудио#1: 48 kHz, AC3 Dolby Digital, 2 channels ~192.00 kbps avg (NewStudio)

  • Аудио#2: 48 kHz, AC3 Dolby Digital, 3/2 (L,C,R,l,r) + LFE ch, ~384.00 kbps avg

Скриншоты

MediaInfo

Код: copyText_writeLink('this.parentNode.parentNode.nextSibling.nextSibling');
General
Unique ID : 245019816841554377789125364904528383847 (0xB85519A82BE398CB913D7BDDBC8B0F67)
Complete name : D:\Торенты\Cult (Сезон 1) WEB-DL 720p\Cult.s01e01.WEBDL.720p.NewStudio.TV.mkv
Format : Matroska
Format version : Version 2
File size : 1.40 GiB
Duration : 42mn 30s
Overall bit rate : 4 716 Kbps
Encoded date : UTC 2013-02-20 21:11:49
Writing application : mkvmerge v2.9.9 ('Tutu') built on Nov 25 2009 21:13:32
Writing library : libebml v0.7.9 + libmatroska v0.8.1
Video
ID : 1
Format : AVC
Format/Info : Advanced Video Codec
Format profile : High@L3.1
Format settings, CABAC : No
Format settings, ReFrames : 2 frames
Codec ID : V_MPEG4/ISO/AVC
Duration : 42mn 30s
Bit rate : 4 046 Kbps
Width : 1 280 pixels
Height : 720 pixels
Display aspect ratio : 16:9
Frame rate mode : Constant
Frame rate : 23.976 fps
Color space : YUV
Chroma subsampling : 4:2:0
Bit depth : 8 bits
Scan type : Progressive
Bits/(Pixel*Frame) : 0.183
Stream size : 1.20 GiB (86%)
Language : English
Default : Yes
Forced : No
Color primaries : BT.709
Transfer characteristics : BT.709
Matrix coefficients : BT.709
Audio #1
ID : 2
Format : AC-3
Format/Info : Audio Coding 3
Mode extension : CM (complete main)
Format settings, Endianness : Big
Codec ID : A_AC3
Duration : 42mn 30s
Bit rate mode : Constant
Bit rate : 192 Kbps
Channel(s) : 2 channels
Channel positions : Front: L R
Sampling rate : 48.0 KHz
Bit depth : 16 bits
Compression mode : Lossy
Stream size : 58.4 MiB (4%)
Default : Yes
Forced : Yes
Audio #2
ID : 3
Format : AC-3
Format/Info : Audio Coding 3
Mode extension : CM (complete main)
Format settings, Endianness : Big
Codec ID : A_AC3
Duration : 42mn 30s
Bit rate mode : Constant
Bit rate : 384 Kbps
Channel(s) : 6 channels
Channel positions : Front: L C R, Side: L R, LFE
Sampling rate : 48.0 KHz
Bit depth : 16 bits
Compression mode : Lossy
Stream size : 117 MiB (8%)
Language : English
Default : No
Forced : No

Внимание! Раздача ведётся путём добавления новых серий

Внимание! Раздача ведётся путём добавления новых серий; при каждом добавлении создётся новый торрент. Чтобы начать докачку новой серии, пользователям необходимо сделать следующее:
  • остановить скачивание,
  • удалить старый торрент у себя из клиента (старые серии удалять не надо),
  • скачать новый торрент и запустить его у себя в клиенте вместо старого, при этом указать клиенту путь в старую папку куда и должно происходить скачивание новых серий.
Ваш клиент при этом должен произвести хеширование (проверку) старой папки (если не производит сам - помогите ему сделать это), и будет докачивать только те серии которых у вас ещё нет. Старые серии при этом не удаляются, а продолжают раздаваться!
Eсли вы уже удалили старые серии, то предотвратить повторную закачку старых серий можно, отжав галочку в соответсвующих местах при запуске нового торрента. По возможности, желательно не удалять старые серии как можно дольше, чтобы релизёр не столько продолжал раздавать старые серии, а смог сконцентрироваться на новых.


Показать сообщения:    

Текущее время: 12-Дек 10:30

Часовой пояс: UTC ± 0


Вы не можете начинать темы
Вы не можете отвечать на сообщения
Вы не можете редактировать свои сообщения
Вы не можете удалять свои сообщения
Вы не можете голосовать в опросах
Вы не можете прикреплять файлы к сообщениям
Вы не можете скачивать файлы

!ВНИМАНИЕ!
Сайт не предоставляет электронные версии произведений, а занимается лишь коллекционированием и каталогизацией ссылок, присылаемых и публикуемых на форуме нашими читателями. Если вы являетесь правообладателем какого-либо представленного материала и не желаете, чтобы ссылка на него находилась в нашем каталоге, свяжитесь с нами, и мы незамедлительно удалим ее. Файлы для обмена на трекере предоставлены пользователями сайта, и администрация не несет ответственности за их содержание. Просьба не заливать файлы, защищенные авторскими правами, а также файлы нелегального содержания!